[MagicStar] Kawareta Otoko EP07 [WEBDL] [1080p] [DMM-TV] [EP06_JPN_SUB] [V0]

Category:
Date:
2024-05-25 15:43 UTC
Submitter:
Seeders:
1
File size:
721.3 MiB
Completed:
461
Info hash:
3d15ca336c5d002ab5615a48951a3d27724a6d67
HD 1080p from DMM TV. Episode.6 Japanese subtitles added. ************** We are planning to upload all DMM TV Dramas and Movies, we need your Support! ************** Support Us Ali (Zhifubao / QR code): https://i.ibb.co/FWV2ggm/1660626347125.png PayPalMe: https://www.paypal.com/paypalme/sakuragikenji BTC (USDT): 19y5NF6voysif7PeJLv86Hf186ZS1i4rwu ETH: 0x807B4eec355Cfa65500BeE65A992a9a0d8432697 LTC: LUC2dTQkte7muv5oUUuRNJimLJvi9pgZUQ ************** ![alt text](https://i.ibb.co/TPRWGVp/Kawareta-otoko-1.jpg) ![alt text](https://i.ibb.co/34RnFxk/Kawareta-Otoko-EP07-1080p-DMM-TV-WEB-DL-AAC2-0-H-264-V0-Magic-Star-mkv.jpg) ``` General Unique ID : 169868104590628335900931554117416010169 (0x7FCB682C16B1B8222FB5DAFF349241B9) Complete name : Kawareta.Otoko.EP07.1080p.DMM-TV.WEB-DL.AAC2.0.H.264.V0-MagicStar.mkv Format : Matroska Format version : Version 4 File size : 721 MiB Duration : 23 min 25 s Overall bit rate : 4 306 kb/s Frame rate : 23.976 FPS Encoded date : 2024-05-25 15:34:05 UTC Writing application : mkvmerge v50.0.0 ('Awakenings') 64-bit Writing library : libebml v1.4.0 + libmatroska v1.6.2 Cover : Yes Attachments : cover.png Video ID : 1 Format : AVC Format/Info : Advanced Video Codec Format profile : High@L4 Format settings : CABAC / 1 Ref Frames Format settings, CABAC : Yes Format settings, Reference fra : 1 frame Format settings, GOP : M=1, N=24 Codec ID : V_MPEG4/ISO/AVC Duration : 23 min 24 s Bit rate mode : Constant Bit rate : 4 042 kb/s Width : 1 920 pixels Height : 1 080 pixels Display aspect ratio : 16:9 Frame rate mode : Constant Frame rate : 23.976 (24000/1001) FPS Color space : YUV Chroma subsampling : 4:2:0 Bit depth : 8 bits Scan type : Progressive Bits/(Pixel*Frame) : 0.081 Stream size : 676 MiB (94%) Default : Yes Forced : No Color range : Limited Color primaries : BT.709 Transfer characteristics : BT.709 Matrix coefficients : BT.709 Audio ID : 2 Format : AAC LC Format/Info : Advanced Audio Codec Low Complexity Codec ID : A_AAC-2 Duration : 23 min 25 s Bit rate : 256 kb/s Channel(s) : 2 channels Channel layout : L R Sampling rate : 48.0 kHz Frame rate : 46.875 FPS (1024 SPF) Compression mode : Lossy Stream size : 42.9 MiB (6%) Title : 日本語 [オリジナル] Language : Japanese Default : Yes Forced : No ```

File list