[MagicStar] Kanzou wo Ubawareta Tsuma EP08 [WEBDL] [1080p] [HULU] [JPN_SUB]

Category:
Date:
2024-05-25 14:52 UTC
Submitter:
Seeders:
7
Information:
Leechers:
1
File size:
525.4 MiB
Completed:
663
Info hash:
0a8574b9d88545496572270a659033eeae633a2e
HD 1080p from HULU JAPAN. Japanese subtitles added. ************** Support Us Ali (Zhifubao / QR code): https://i.ibb.co/FWV2ggm/1660626347125.png PayPalMe: https://www.paypal.com/paypalme/sakuragikenji BTC (USDT): 19y5NF6voysif7PeJLv86Hf186ZS1i4rwu ETH: 0x807B4eec355Cfa65500BeE65A992a9a0d8432697 LTC: LUC2dTQkte7muv5oUUuRNJimLJvi9pgZUQ ************** ![alt text](https://i.ibb.co/WncQQLk/40e2ac60-3577-4913-847b-5dd15ea99d96b.jpg) ![alt text](https://i.ibb.co/LgfVTTW/Kanzou-wo-Ubawareta-Tsuma-EP08-1080p-HULU-WEB-DL-AAC2-0-H-264-Magic-Star-mkv.jpg) ``` General Unique ID : 214179092850268518297730106171799545303 (0xA12164910B60E72E9B22E30B7132A5D7) Complete name : Kanzou.wo.Ubawareta.Tsuma.EP08.1080p.HULU.WEB-DL.AAC2.0.H.264-MagicStar.mkv Format : Matroska Format version : Version 4 File size : 525 MiB Duration : 23 min 23 s Overall bit rate : 3 141 kb/s Frame rate : 29.970 FPS Encoded date : 2024-05-25 09:02:42 UTC Writing application : mkvmerge v50.0.0 ('Awakenings') 64-bit Writing library : libebml v1.4.0 + libmatroska v1.6.2 Cover : Yes Attachments : cover.png Video ID : 1 Format : AVC Format/Info : Advanced Video Codec Format profile : High@L4 Format settings : CABAC / 4 Ref Frames Format settings, CABAC : Yes Format settings, Reference fra : 4 frames Codec ID : V_MPEG4/ISO/AVC Duration : 23 min 23 s Bit rate : 2 884 kb/s Width : 1 920 pixels Height : 1 080 pixels Display aspect ratio : 16:9 Frame rate mode : Constant Frame rate : 29.970 (29970/1000) FPS Original frame rate : 29.970 (30000/1001) FPS Color space : YUV Chroma subsampling : 4:2:0 Bit depth : 8 bits Scan type : Progressive Bits/(Pixel*Frame) : 0.046 Stream size : 482 MiB (92%) Default : Yes Forced : No Color range : Limited Color primaries : BT.709 Transfer characteristics : BT.709 Matrix coefficients : BT.709 Audio ID : 2 Format : AAC LC Format/Info : Advanced Audio Codec Low Complexity Codec ID : A_AAC-2 Duration : 23 min 23 s Bit rate : 253 kb/s Channel(s) : 2 channels Channel layout : L R Sampling rate : 48.0 kHz Frame rate : 46.875 FPS (1024 SPF) Compression mode : Lossy Stream size : 42.4 MiB (8%) Title : 日本語 [オリジナル] Language : Japanese Default : Yes Forced : No ```

File list