[Anime Land] Ransomed (2023) (BDRip 1080p HEVC EAC3) KOREAN [1053D06C].mkv

Category:
Date:
2024-05-24 04:49 UTC
Submitter:
Seeders:
2
Information:
No information.
Leechers:
0
File size:
6.8 GiB
Completed:
236
Info hash:
39f600eb247819ef83791d13ad0b09ae97c8c6e0
![alt text](https://i.mydramalist.com/WP5jb3_4f.jpg "Logo Title Text 1") ![alt text](https://media.fotki.com/2v2eNcH7dxBcWUV.jpg "Logo Title Text 1") ```javascript General Unique ID : 118215653670895849328653176107958036471 (0x58EF81B90ED0340CB603A713BA5C67F7) Complete name : [Anime Land] Ransomed (2023) (BDRip 1080p HEVC EAC3) KOREAN [1053D06C].mkv Format : Matroska Format version : Version 4 File size : 6.76 GiB Duration : 2 h 12 min Overall bit rate : 7 317 kb/s Frame rate : 24.000 FPS Movie name : [Anime Land] Ransomed (2023) (BDRip 1080p HEVC EAC3) KOREAN [Encode By Omar] Encoded date : 2024-05-24 04:15:02 UTC Writing application : mkvmerge v84.0 ('Sleeper') 64-bit Writing library : libebml v1.4.5 + libmatroska v1.7.1 Attachments : BAHIJ_MITRA-BOLD.TTF Video ID : 1 Format : HEVC Format/Info : High Efficiency Video Coding Format profile : Main 10@L5.1@High Codec ID : V_MPEGH/ISO/HEVC Duration : 2 h 12 min Bit rate : 6 529 kb/s Width : 1 920 pixels Height : 804 pixels Display aspect ratio : 2.40:1 Frame rate mode : Constant Frame rate : 24.000 FPS Color space : YUV Chroma subsampling : 4:2:0 Bit depth : 10 bits Bits/(Pixel*Frame) : 0.176 Stream size : 6.04 GiB (89%) Title : BDRip By Omar Writing library : x265 3.6+30-40fd1257c:[DJATOM's Mod][Windows][GCC 13.2.0][64 bit] 10bit Encoding settings : cpuid=1111039 / frame-threads=5 / numa-pools=32,32 / wpp / no-pmode / no-pme / no-psnr / no-ssim / log-level=2 / input-csp=1 / input-res=1920x804 / interlace=0 / total-frames=190583 / level-idc=51 / high-tier=1 / uhd-bd=0 / ref=5 / no-allow-non-conformance / no-repeat-headers / annexb / no-aud / no-eob / no-eos / no-hrd / info / hash=0 / temporal-layers=0 / open-gop / min-keyint=24 / keyint=250 / gop-lookahead=0 / bframes=16 / b-adapt=2 / b-pyramid / bframe-bias=0 / rc-lookahead=40 / lookahead-slices=0 / scenecut=40 / no-hist-scenecut / radl=0 / no-splice / no-intra-refresh / ctu=64 / min-cu-size=8 / rect / amp / max-tu-size=32 / tu-inter-depth=3 / tu-intra-depth=3 / limit-tu=0 / rdoq-level=2 / dynamic-rd=0.00 / no-ssim-rd / signhide / no-tskip / nr-intra=0 / nr-inter=0 / no-constrained-intra / strong-intra-smoothing / max-merge=5 / limit-refs=0 / no-limit-modes / me=3 / subme=4 / merange=57 / temporal-mvp / no-frame-dup / no-hme / weightp / weightb / no-analyze-src-pics / deblock=-3:-3 / sao / no-sao-non-deblock / rd=6 / selective-sao=4 / no-early-skip / rskip / no-fast-intra / no-tskip-fast / no-cu-lossless / b-intra / no-splitrd-skip / rdpenalty=0 / psy-rd=2.00 / psy-rdoq=1.00 / no-rd-refine / no-lossless / cbqpoffs=0 / crqpoffs=0 / rc=crf / crf=16.0 / qcomp=0.60 / qpstep=4 / stats-write=0 / stats-read=0 / vbv-maxrate=160000 / vbv-bufsize=160000 / vbv-init=0.9 / min-vbv-fullness=50.0 / max-vbv-fullness=80.0 / crf-max=0.0 / crf-min=0.0 / ipratio=1.40 / pbratio=1.30 / aq-mode=2 / aq-strength=1.00 / aq-bias-strength=1.00 / cutree / zone-count=0 / no-strict-cbr / qg-size=32 / no-rc-grain / qpmax=69 / qpmin=0 / no-const-vbv / sar=0 / overscan=0 / videoformat=5 / range=0 / colorprim=2 / transfer=2 / colormatrix=2 / chromaloc=0 / display-window=0 / cll=0,0 / min-luma=0 / max-luma=1023 / log2-max-poc-lsb=8 / vui-timing-info / vui-hrd-info / slices=1 / no-opt-qp-pps / no-opt-ref-list-length-pps / no-multi-pass-opt-rps / scenecut-bias=0.05 / no-opt-cu-delta-qp / no-aq-motion / no-hdr10 / no-hdr10-opt / no-dhdr10-opt / no-idr-recovery-sei / analysis-reuse-level=0 / analysis-save-reuse-level=0 / analysis-load-reuse-level=0 / scale-factor=0 / refine-intra=0 / refine-inter=0 / refine-mv=1 / refine-ctu-distortion=0 / no-limit-sao / ctu-info=0 / no-lowpass-dct / refine-analysis-type=0 / copy-pic=1 / max-ausize-factor=1.0 / no-dynamic-refine / no-single-sei / no-hevc-aq / no-svt / no-field / qp-adaptation-range=1.00 / scenecut-aware-qp=0conformance-window-offsets / right=0 / bottom=0 / decoder-max-rate=0 / no-vbv-live-multi-pass / no-mcstf / no-sbrc Language : Korean Default : Yes Forced : No Audio ID : 2 Format : E-AC-3 Format/Info : Enhanced AC-3 Commercial name : Dolby Digital Plus Codec ID : A_EAC3 Duration : 2 h 12 min Bit rate mode : Constant Bit rate : 768 kb/s Channel(s) : 6 channels Channel layout : L R C LFE Ls Rs Sampling rate : 48.0 kHz Frame rate : 31.250 FPS (1536 SPF) Compression mode : Lossy Stream size : 727 MiB (10%) Title : EAC3 768 Kbps 5.1 By Omar Language : Korean Service kind : Complete Main Default : Yes Forced : No Text #1 ID : 3 Format : UTF-8 Codec ID : S_TEXT/UTF8 Codec ID/Info : UTF-8 Plain Text Duration : 2 h 7 min Bit rate : 88 b/s Frame rate : 0.314 FPS Count of elements : 2392 Stream size : 82.0 KiB (0%) Title : KOREAN-SRT Sub (NetFlix) Language : Korean Default : Yes Forced : No Text #2 ID : 4 Format : PGS Muxing mode : zlib Codec ID : S_HDMV/PGS Codec ID/Info : Picture based subtitle format used on BDs/HD-DVDs Duration : 2 h 7 min Bit rate : 26.0 kb/s Frame rate : 0.360 FPS Count of elements : 2744 Stream size : 23.6 MiB (0%) Title : CHINESE-PGS Sub (Untouched) Language : Chinese Default : Yes Forced : No Text #3 ID : 5 Format : PGS Muxing mode : zlib Codec ID : S_HDMV/PGS Codec ID/Info : Picture based subtitle format used on BDs/HD-DVDs Duration : 2 h 7 min Bit rate : 25.4 kb/s Frame rate : 0.276 FPS Count of elements : 2104 Stream size : 23.1 MiB (0%) Title : ENGLISH-PGS Sub (Untouched) Language : English Default : Yes Forced : No Text #4 ID : 6 Format : UTF-8 Codec ID : S_TEXT/UTF8 Codec ID/Info : UTF-8 Plain Text Duration : 2 h 6 min Bit rate : 53 b/s Frame rate : 0.184 FPS Count of elements : 1403 Stream size : 49.9 KiB (0%) Title : FRENCH-SRT Sub (Official) Language : French Default : Yes Forced : No Text #5 ID : 7 Format : UTF-8 Codec ID : S_TEXT/UTF8 Codec ID/Info : UTF-8 Plain Text Duration : 2 h 6 min Bit rate : 44 b/s Frame rate : 0.184 FPS Count of elements : 1401 Stream size : 41.8 KiB (0%) Title : SPANISH-SRT Sub (Official) Language : Spanish Default : Yes Forced : No Text #6 ID : 8 Format : ASS Codec ID : S_TEXT/ASS Codec ID/Info : Advanced Sub Station Alpha Duration : 2 h 12 min Bit rate : 91 b/s Frame rate : 0.168 FPS Count of elements : 1337 Compression mode : Lossless Stream size : 89.0 KiB (0%) Title : ARABIC-ASS Sub (AsiaWorldTeam) Language : Arabic Default : Yes Forced : No Menu 00:00:00.000 : ko:Chapter 01 00:10:36.500 : ko:Chapter 02 00:18:44.375 : ko:Chapter 03 00:29:33.458 : ko:Chapter 04 00:43:53.750 : ko:Chapter 05 00:52:52.708 : ko:Chapter 06 01:05:19.417 : ko:Chapter 07 01:17:09.667 : ko:Chapter 08 01:28:13.792 : ko:Chapter 09 01:44:18.042 : ko:Chapter 10 01:57:41.208 : ko:Chapter 11 02:03:48.208 : ko:Chapter 12 02:12:20.542 : ko:Chapter 13 ```

File list

  • [Anime Land] Ransomed (2023) (BDRip 1080p HEVC EAC3) KOREAN [1053D06C].mkv (6.8 GiB)