[MagicStar] Anata no Koibito, Goudatsu Shimasu. EP06 [WEBDL] [1080p] [ABEMA-TV] [JPN_SUB]

Category:
Date:
2024-05-21 12:49 UTC
Submitter:
Seeders:
10
Information:
Leechers:
1
File size:
709.6 MiB
Completed:
648
Info hash:
e9649b3df84daacbe1d05beedf49c8271b9f189c
HD 1080p from Abema TV. Japanese subtitles added. ![alt text](https://i.ibb.co/MP7NrVK/72a8a1f0de.jpg) ![alt text](https://i.ibb.co/NyvpBDK/Anata-no-Koibito-Goudatsu-Shimasu-EP06-1080p-ABEMA-TV-WEB-DL-AAC2-0-H-264-Magic-Star-mkv.jpg) ``` General Unique ID : 44129931792820089298163373142089775843 (0x21331D9F10144093021719334821BAE3) Complete name : Anata.no.Koibito.Goudatsu.Shimasu.EP06.1080p.ABEMA-TV.WEB-DL.AAC2.0.H.264-MagicStar.mkv Format : Matroska Format version : Version 4 File size : 710 MiB Duration : 23 min 37 s Overall bit rate mode : Variable Overall bit rate : 4 200 kb/s Frame rate : 29.970 FPS Encoded date : 2024-05-21 02:02:45 UTC Writing application : mkvmerge v50.0.0 ('Awakenings') 64-bit Writing library : libebml v1.4.0 + libmatroska v1.6.2 Video ID : 1 Format : AVC Format/Info : Advanced Video Codec Format profile : Main@L3.1 Format settings : CABAC / 4 Ref Frames Format settings, CABAC : Yes Format settings, Reference fra : 4 frames Codec ID : V_MPEG4/ISO/AVC Duration : 23 min 37 s Bit rate mode : Variable Bit rate : 4 005 kb/s Maximum bit rate : 40.0 Mb/s Width : 1 920 pixels Height : 1 080 pixels Display aspect ratio : 16:9 Frame rate mode : Constant Frame rate : 29.970 (29970/1000) FPS Original frame rate : 29.970 (30000/1001) FPS Color space : YUV Chroma subsampling : 4:2:0 Bit depth : 8 bits Scan type : Progressive Bits/(Pixel*Frame) : 0.064 Stream size : 676 MiB (95%) Default : Yes Forced : No Audio ID : 2 Format : AAC LC Format/Info : Advanced Audio Codec Low Complexity Codec ID : A_AAC-2 Duration : 23 min 37 s Bit rate : 192 kb/s Channel(s) : 2 channels Channel layout : L R Sampling rate : 44.1 kHz Frame rate : 43.066 FPS (1024 SPF) Compression mode : Lossy Stream size : 32.7 MiB (5%) Title : 日本語 [オリジナル] Language : Japanese Default : Yes Forced : No ```

File list