[MagicStar] ACMA:GAME EP07.5 [WEBDL] [1080p]

Category:
Date:
2024-05-21 12:47 UTC
Submitter:
Seeders:
7
Information:
Leechers:
2
File size:
111.6 MiB
Completed:
738
Info hash:
9ba35181856e5317fe361bcd35d9222f65f0bf3b
HD 1080p from TVer. ![alt text](https://i.ibb.co/BykWQfh/66512cd4-eaef-4236-a820-260e1933375db.jpg) ![alt text](https://i.ibb.co/GvMrfhz/Magic-Star-ACMA-GAME-EP07-5-WEBDL-1080p-mkv.jpg) ``` General Unique ID : 335144737707303713067327179316527310750 (0xFC228752AF7B46FC1EFF2D613D43279E) Complete name : [MagicStar] ACMA:GAME EP07.5 [WEBDL] [1080p].mkv Format : Matroska Format version : Version 4 File size : 112 MiB Duration : 5 min 27 s Overall bit rate : 2 864 kb/s Frame rate : 29.970 FPS Encoded date : 2024-05-20 15:31:28 UTC Writing application : mkvmerge v50.0.0 ('Awakenings') 64-bit Writing library : libebml v1.4.0 + libmatroska v1.6.2 Video ID : 1 Format : AVC Format/Info : Advanced Video Codec Format profile : High@L4 Format settings : CABAC / 4 Ref Frames Format settings, CABAC : Yes Format settings, Reference fra : 4 frames Codec ID : V_MPEG4/ISO/AVC Duration : 5 min 26 s Bit rate : 2 670 kb/s Width : 1 920 pixels Height : 1 080 pixels Display aspect ratio : 16:9 Frame rate mode : Constant Frame rate : 29.970 (29970/1000) FPS Original frame rate : 29.970 (30000/1001) FPS Color space : YUV Chroma subsampling : 4:2:0 Bit depth : 8 bits Scan type : Progressive Bits/(Pixel*Frame) : 0.043 Stream size : 104 MiB (93%) Default : Yes Forced : No Color range : Limited Color primaries : BT.709 Transfer characteristics : BT.709 Matrix coefficients : BT.709 Audio ID : 2 Format : AAC LC Format/Info : Advanced Audio Codec Low Complexity Codec ID : A_AAC-2 Duration : 5 min 27 s Bit rate : 192 kb/s Channel(s) : 2 channels Channel layout : L R Sampling rate : 48.0 kHz Frame rate : 46.875 FPS (1024 SPF) Compression mode : Lossy Stream size : 7.45 MiB (7%) Title : 日本語 [オリジナル] Language : Japanese Default : Yes Forced : No ```

File list