[MagicStar] 6-byoukan no Kiseki ~Hanabishi Mochizuki Seitarou no Yuuutsu~ Season2 EP06 [WEBDL] [1080p] [ABEMA-TV] [JPN_SUB]

Category:
Date:
2024-05-21 12:40 UTC
Submitter:
Seeders:
10
File size:
723.2 MiB
Completed:
821
Info hash:
a7f102a78c34b7a5e859d31c922be20930688835
HD 1080p from Abema TV. Japanese subtitles added. ![alt text](https://i.ibb.co/KbRSgqr/3fc7f5f968.jpg) ![alt text](https://i.ibb.co/JQ60gwp/6-byoukan-no-Kiseki-Hanabishi-Mochizuki-Seitarou-no-Yuuutsu-S02-E06-1080p-ABEMA-TV-WEB-DL-AAC2-0-H-2.jpg) ``` General Unique ID : 187033871401559885490894629173434268639 (0x8CB569D19CFA82C79DE78CAB03C83BDF) Complete name : 6.byoukan.no.Kiseki.Hanabishi.Mochizuki.Seitarou.no.Yuuutsu.S02E06.1080p.ABEMA-TV.WEB-DL.AAC2.0.H.264.mkv Format : Matroska Format version : Version 4 File size : 723 MiB Duration : 24 min 4 s Overall bit rate mode : Variable Overall bit rate : 4 201 kb/s Frame rate : 29.970 FPS Encoded date : 2024-05-18 16:11:54 UTC Writing application : mkvmerge v50.0.0 ('Awakenings') 64-bit Writing library : libebml v1.4.0 + libmatroska v1.6.2 Video ID : 1 Format : AVC Format/Info : Advanced Video Codec Format profile : Main@L3.1 Format settings : CABAC / 4 Ref Frames Format settings, CABAC : Yes Format settings, Reference fra : 4 frames Codec ID : V_MPEG4/ISO/AVC Duration : 24 min 3 s Bit rate mode : Variable Bit rate : 4 005 kb/s Maximum bit rate : 40.0 Mb/s Width : 1 920 pixels Height : 1 080 pixels Display aspect ratio : 16:9 Frame rate mode : Constant Frame rate : 29.970 (29970/1000) FPS Original frame rate : 29.970 (30000/1001) FPS Color space : YUV Chroma subsampling : 4:2:0 Bit depth : 8 bits Scan type : Progressive Bits/(Pixel*Frame) : 0.064 Stream size : 689 MiB (95%) Default : Yes Forced : No Audio ID : 2 Format : AAC LC Format/Info : Advanced Audio Codec Low Complexity Codec ID : A_AAC-2 Duration : 24 min 4 s Bit rate : 192 kb/s Channel(s) : 2 channels Channel layout : L R Sampling rate : 44.1 kHz Frame rate : 43.066 FPS (1024 SPF) Compression mode : Lossy Stream size : 33.3 MiB (5%) Title : 日本語 [オリジナル] Language : Japanese Default : Yes Forced : No ```

File list