[MagicStar] Kishibe Rohan wa Ugokanai Season4 - Spin-off [WEBDL] [1080p] [AMZN] [JPN_ENG_SUB]

Category:
Date:
2024-05-21 12:34 UTC
Submitter:
Seeders:
12
Information:
Leechers:
0
File size:
833.7 MiB
Completed:
781
Info hash:
5213241613771b7441db5a72f72ae6706bdea491
HD 1080p from Prime Video. Use CBR bitrate mode. Japanese and English subtitles added. Episode.9 Spin-off. ************** We are planning to upload all Prime Video Japan Dramas and Movies, we need your Support! ************** Support Us Ali (Zhifubao / QR code): https://i.ibb.co/FWV2ggm/1660626347125.png PayPalMe: https://www.paypal.com/paypalme/sakuragikenji BTC (USDT): 19y5NF6voysif7PeJLv86Hf186ZS1i4rwu ETH: 0x807B4eec355Cfa65500BeE65A992a9a0d8432697 LTC: LUC2dTQkte7muv5oUUuRNJimLJvi9pgZUQ ************** ![alt text](https://i.ibb.co/k29C9gf/850fe32cbe3d5abc1a26db6881264fd1d425f900f3f3ed2a9bc6b8daf3f3d85a.jpg) ![alt text](https://i.ibb.co/2h4Xs3J/Kishibe-Rohan-wa-Ugokanai-EP09-Spin-off-1080p-AMZN-WEB-DL-DDP2-0-H-264-Magic-Star-mkv.jpg) ``` General Unique ID : 237464395333106323570562712401185625906 (0xB2A5FA9DC385370AC3563A9C59E85732) Complete name : Kishibe.Rohan.wa.Ugokanai.EP09.Spin.off.1080p.AMZN.WEB-DL.DDP2.0.H.264-MagicStar.mkv Format : Matroska Format version : Version 4 File size : 834 MiB Duration : 13 min 31 s Overall bit rate mode : Constant Overall bit rate : 8 617 kb/s Frame rate : 29.970 FPS Encoded date : 2024-05-21 03:02:53 UTC Writing application : mkvmerge v50.0.0 ('Awakenings') 64-bit Writing library : libebml v1.4.0 + libmatroska v1.6.2 Cover : Yes Attachments : cover.jpg Video ID : 1 Format : AVC Format/Info : Advanced Video Codec Format profile : High@L4 Format settings : CABAC / 4 Ref Frames Format settings, CABAC : Yes Format settings, Reference fra : 4 frames Codec ID : V_MPEG4/ISO/AVC Duration : 13 min 31 s Bit rate mode : Constant Bit rate : 8 380 kb/s Nominal bit rate : 10 000 kb/s Width : 1 920 pixels Height : 1 080 pixels Display aspect ratio : 16:9 Frame rate mode : Constant Frame rate : 29.970 (29970/1000) FPS Original frame rate : 29.970 (30000/1001) FPS Color space : YUV Chroma subsampling : 4:2:0 Bit depth : 8 bits Scan type : Progressive Bits/(Pixel*Frame) : 0.135 Stream size : 811 MiB (97%) Default : Yes Forced : No Color range : Limited Color primaries : BT.709 Transfer characteristics : BT.709 Matrix coefficients : BT.709 Audio ID : 2 Format : E-AC-3 Format/Info : Enhanced AC-3 Commercial name : Dolby Digital Plus Codec ID : A_EAC3 Duration : 13 min 31 s Bit rate mode : Constant Bit rate : 224 kb/s Channel(s) : 2 channels Channel layout : L R Sampling rate : 48.0 kHz Frame rate : 31.250 FPS (1536 SPF) Compression mode : Lossy Stream size : 21.7 MiB (3%) Title : 日本語 [オリジナル] Language : Japanese Service kind : Complete Main Default : Yes Forced : No ```

File list

Please ripping Live-action tranformers JPN dub from AMZN. https://www.amazon.co.jp/dp/B0BX1TCNQ7