[WEB] Spare Me, Great Lord! - Season 2 [1080P][HEVC][x265][10-bit][HFR][AAC]

Category:
Date:
2024-05-20 22:36 UTC
Submitter:
Seeders:
54
File size:
13.8 GiB
Completed:
792
Info hash:
6d98500c48628efa79e04645412d2ff76efe29d7
Spare Me, Great Lord! Dawang Raoming Da Wang Rao Ming 大王饶命 General Unique ID : 228307777630899752521059331795367360854 (0xABC27A8218341639CA0A426B4E45F956) Complete name : D:\OBS\Spare Me! Great Lord! S2\S02E01.mkv Format : Matroska Format version : Version 4 / Version 2 File size : 1.47 GiB Duration : 34 min 5 s Overall bit rate : 6 171 kb/s Encoded date : UTC 2024-05-20 10:39:05 Writing application : mkvmerge v80.0 ('Roundabout') 64-bit Writing library : libebml v1.4.4 + libmatroska v1.7.1 Video ID : 1 Format : HEVC Format/Info : High Efficiency Video Coding Format profile : Main 10@L4.1@Main Codec ID : V_MPEGH/ISO/HEVC Duration : 34 min 5 s Bit rate : 5 900 kb/s Width : 1 920 pixels Height : 1 080 pixels Display aspect ratio : 16:9 Frame rate mode : Constant Frame rate : 60.000 FPS Color space : YUV Chroma subsampling : 4:2:0 Bit depth : 10 bits Bits/(Pixel*Frame) : 0.047 Stream size : 1.41 GiB (96%) Writing library : x265 3.5+117-b34fb2c77:[Windows][GCC 13.2.0][64 bit] 10bit Encoding settings : cpuid=1111039 / frame-threads=5 / numa-pools=32 / wpp / no-pmode / no-pme / no-psnr / no-ssim / log-level=2 / input-csp=1 / input-res=1920x1080 / interlace=0 / total-frames=0 / level-idc=0 / high-tier=1 / uhd-bd=0 / ref=4 / no-allow-non-conformance / no-repeat-headers / annexb / no-aud / no-eob / no-eos / no-hrd / info / hash=0 / temporal-layers=0 / open-gop / min-keyint=25 / keyint=250 / gop-lookahead=0 / bframes=4 / b-adapt=2 / b-pyramid / bframe-bias=0 / rc-lookahead=25 / lookahead-slices=4 / scenecut=40 / no-hist-scenecut / radl=0 / no-splice / no-intra-refresh / ctu=64 / min-cu-size=8 / rect / no-amp / max-tu-size=32 / tu-inter-depth=1 / tu-intra-depth=1 / limit-tu=0 / rdoq-level=2 / dynamic-rd=0.00 / no-ssim-rd / signhide / no-tskip / nr-intra=0 / nr-inter=0 / no-constrained-intra / strong-intra-smoothing / max-merge=3 / limit-refs=3 / limit-modes / me=3 / subme=3 / merange=57 / temporal-mvp / no-frame-dup / no-hme / weightp / no-weightb / no-analyze-src-pics / deblock=0:0 / sao / no-sao-non-deblock / rd=4 / selective-sao=4 / no-early-skip / rskip / no-fast-intra / no-tskip-fast / no-cu-lossless / no-b-intra / no-splitrd-skip / rdpenalty=0 / psy-rd=2.00 / psy-rdoq=1.00 / no-rd-refine / no-lossless / cbqpoffs=0 / crqpoffs=0 / rc=crf / crf=12.0 / qcomp=0.60 / qpstep=4 / stats-write=0 / stats-read=0 / ipratio=1.40 / pbratio=1.30 / aq-mode=2 / aq-strength=1.00 / cutree / zone-count=0 / no-strict-cbr / qg-size=32 / no-rc-grain / qpmax=69 / qpmin=0 / no-const-vbv / sar=0 / overscan=0 / videoformat=5 / range=0 / colorprim=1 / transfer=13 / colormatrix=2 / chromaloc=0 / display-window=0 / cll=0,0 / min-luma=0 / max-luma=1023 / log2-max-poc-lsb=8 / vui-timing-info / vui-hrd-info / slices=1 / no-opt-qp-pps / no-opt-ref-list-length-pps / no-multi-pass-opt-rps / scenecut-bias=0.05 / no-opt-cu-delta-qp / no-aq-motion / no-hdr10 / no-hdr10-opt / no-dhdr10-opt / no-idr-recovery-sei / analysis-reuse-level=0 / analysis-save-reuse-level=0 / analysis-load-reuse-level=0 / scale-factor=0 / refine-intra=0 / refine-inter=0 / refine-mv=1 / refine-ctu-distortion=0 / no-limit-sao / ctu-info=0 / no-lowpass-dct / refine-analysis-type=0 / copy-pic=1 / max-ausize-factor=1.0 / no-dynamic-refine / no-single-sei / no-hevc-aq / no-svt / no-field / qp-adaptation-range=1.00 / scenecut-aware-qp=0conformance-window-offsets / right=0 / bottom=0 / decoder-max-rate=0 / no-vbv-live-multi-pass / no-mcstf / no-sbrc Default : Yes Forced : No Color range : Limited Color primaries : BT.709 Transfer characteristics : sRGB/sYCC Audio ID : 2 Format : AAC LC Format/Info : Advanced Audio Codec Low Complexity Codec ID : A_AAC-2 Duration : 34 min 5 s Bit rate : 265 kb/s Channel(s) : 2 channels Channel layout : L R Sampling rate : 48.0 kHz Frame rate : 46.875 FPS (1024 SPF) Compression mode : Lossy Delay relative to video : -21 ms Stream size : 64.9 MiB (4%) Default : Yes Forced : No Text ID : 3 Format : UTF-8 Codec ID : S_TEXT/UTF8 Codec ID/Info : UTF-8 Plain Text Duration : 30 min 16 s Bit rate : 60 b/s Count of elements : 423 Stream size : 13.3 KiB (0%) Default : Yes Forced : No

File list

  • Spare Me! Great Lord! S2
    • S02E01.mkv (1.5 GiB)
    • S02E02.mkv (1.2 GiB)
    • S02E03.mkv (1.1 GiB)
    • S02E04.mkv (1019.1 MiB)
    • S02E05.mkv (949.3 MiB)
    • S02E06.mkv (1.1 GiB)
    • S02E07.mkv (976.2 MiB)
    • S02E08.mkv (936.2 MiB)
    • S02E09.mkv (1.1 GiB)
    • S02E10.mkv (1.4 GiB)
    • S02E11.mkv (1.3 GiB)
    • S02E12.mkv (1.5 GiB)