[MagicStar] ANTI HERO EP06 [WEBDL] [1080p] [JPN_SUB]

Category:
Date:
2024-05-19 13:34 UTC
Submitter:
Seeders:
10
Information:
Leechers:
3
File size:
956.3 MiB
Completed:
2075
Info hash:
b5325094ed1319783345c1429c279dd17bb31a26
HD 1080p from TVer. Japanese subtitles added. ![alt text](https://i.ibb.co/st6k4RG/25092.jpg) ![alt text](https://i.ibb.co/LCtdQ2D/Magic-Star-ANTI-HERO-EP06-WEBDL-1080p-mkv.jpg) ``` General Unique ID : 155649458810203141061185919858191218708 (0x7518FECF963B15992611C52FFC21B814) Complete name : [MagicStar] ANTI HERO EP06 [WEBDL] [1080p].mkv Format : Matroska Format version : Version 4 File size : 956 MiB Duration : 46 min 23 s Overall bit rate : 2 881 kb/s Frame rate : 29.970 FPS Encoded date : 2024-05-19 13:32:03 UTC Writing application : mkvmerge v50.0.0 ('Awakenings') 64-bit Writing library : libebml v1.4.0 + libmatroska v1.6.2 Video ID : 1 Format : AVC Format/Info : Advanced Video Codec Format profile : High@L4 Format settings : CABAC / 4 Ref Frames Format settings, CABAC : Yes Format settings, Reference fra : 4 frames Codec ID : V_MPEG4/ISO/AVC Duration : 46 min 23 s Bit rate : 2 687 kb/s Width : 1 920 pixels Height : 1 080 pixels Display aspect ratio : 16:9 Frame rate mode : Constant Frame rate : 29.970 (29970/1000) FPS Original frame rate : 29.970 (30000/1001) FPS Color space : YUV Chroma subsampling : 4:2:0 Bit depth : 8 bits Scan type : Progressive Bits/(Pixel*Frame) : 0.043 Stream size : 892 MiB (93%) Default : Yes Forced : No Color range : Limited Color primaries : BT.709 Transfer characteristics : BT.709 Matrix coefficients : BT.709 Audio ID : 2 Format : AAC LC Format/Info : Advanced Audio Codec Low Complexity Codec ID : A_AAC-2 Duration : 46 min 23 s Bit rate : 192 kb/s Channel(s) : 2 channels Channel layout : L R Sampling rate : 48.0 kHz Frame rate : 46.875 FPS (1024 SPF) Compression mode : Lossy Stream size : 63.7 MiB (7%) Title : 日本語 [オリジナル] Language : Japanese Default : Yes Forced : No ```

File list