[MagicStar] Hanasaki Mai ga Damattenai 2024 EP06 [WEBDL] [1080p] [HULU] [JPN_SUB]

Category:
Date:
2024-05-19 02:34 UTC
Submitter:
Seeders:
17
Information:
Leechers:
2
File size:
1.4 GiB
Completed:
1789
Info hash:
1eea4c3e9241ad5937ff57bdab4dab3800134ef7
HD 1080p from HULU JAPAN. Japanese subtitles added. ************** Support Us Ali (Zhifubao / QR code): https://i.ibb.co/FWV2ggm/1660626347125.png PayPalMe: https://www.paypal.com/paypalme/sakuragikenji BTC (USDT): 19y5NF6voysif7PeJLv86Hf186ZS1i4rwu ETH: 0x807B4eec355Cfa65500BeE65A992a9a0d8432697 LTC: LUC2dTQkte7muv5oUUuRNJimLJvi9pgZUQ ************** ![alt text](https://i.ibb.co/3cSm2hN/c0a5a70f-35ca-4965-bda9-589766ae61fbb.jpg) ![alt text](https://i.ibb.co/jzHqs05/Hanasaki-Mai-ga-Damattenai-2024-EP06-1080p-HULU-WEB-DL-DDP2-0-H-264-Magic-Star-mkv.jpg) ``` General Unique ID : 208683629596358304215113544609417702465 (0x9CFF014F2BC8CC29B404036AF77CAC41) Complete name : Hanasaki.Mai.ga.Damattenai.2024.EP06.1080p.HULU.WEB-DL.DDP2.0.H.264-MagicStar.mkv Format : Matroska Format version : Version 4 File size : 1.37 GiB Duration : 45 min 10 s Overall bit rate : 4 327 kb/s Frame rate : 29.970 FPS Encoded date : 2024-05-18 15:25:44 UTC Writing application : mkvmerge v50.0.0 ('Awakenings') 64-bit Writing library : libebml v1.4.0 + libmatroska v1.6.2 Cover : Yes Attachments : cover.png Video ID : 1 Format : AVC Format/Info : Advanced Video Codec Format profile : High@L4 Format settings : CABAC / 4 Ref Frames Format settings, CABAC : Yes Format settings, Reference fra : 4 frames Codec ID : V_MPEG4/ISO/AVC Duration : 45 min 10 s Bit rate : 4 071 kb/s Width : 1 920 pixels Height : 1 080 pixels Display aspect ratio : 16:9 Frame rate mode : Constant Frame rate : 29.970 (29970/1000) FPS Original frame rate : 29.970 (30000/1001) FPS Color space : YUV Chroma subsampling : 4:2:0 Bit depth : 8 bits Scan type : Progressive Bits/(Pixel*Frame) : 0.066 Stream size : 1.28 GiB (94%) Default : Yes Forced : No Color range : Limited Color primaries : BT.709 Transfer characteristics : BT.709 Matrix coefficients : BT.709 Audio ID : 2 Format : AAC LC Format/Info : Advanced Audio Codec Low Complexity Codec ID : A_AAC-2 Duration : 45 min 10 s Bit rate : 253 kb/s Channel(s) : 2 channels Channel layout : L R Sampling rate : 48.0 kHz Frame rate : 46.875 FPS (1024 SPF) Compression mode : Lossy Stream size : 81.9 MiB (6%) Title : 日本語 [オリジナル] Language : Japanese Default : Yes Forced : No ```

File list