[MagicStar] JK to Roppouzensho EP05 [WEBDL] [1080p] [ABEMA-TV] [JPN_SUB] [Audio Description]

Category:
Date:
2024-05-19 02:33 UTC
Submitter:
Seeders:
4
File size:
1.4 GiB
Completed:
236
Info hash:
a19bcbb1e91bea85ce954eac35128576760d0107
HD 1080p from Abema TV. Japanese subtitles added. Audio description. ![alt text](https://i.ibb.co/R9CGWWR/086f9d80-7643-4d50-b227-143f536757fa.jpg) ![alt text](https://i.ibb.co/37L8KYx/JK-to-Roppouzensho-EP05-1080p-ABEMA-TV-WEB-DL-AAC2-0-H-264-Audio-Description-Magic-Star-mkv.jpg) ``` General Unique ID : 207203165069853620167134090919354926504 (0x9BE1E0C5C95F9FF873FDF871AA7D85A8) Complete name : JK.to.Roppouzensho.EP05.1080p.ABEMA-TV.WEB-DL.AAC2.0.H.264.Audio.Description-MagicStar.mkv Format : Matroska Format version : Version 4 File size : 1.41 GiB Duration : 47 min 59 s Overall bit rate mode : Variable Overall bit rate : 4 200 kb/s Frame rate : 29.970 FPS Encoded date : 2024-05-18 15:15:25 UTC Writing application : mkvmerge v50.0.0 ('Awakenings') 64-bit Writing library : libebml v1.4.0 + libmatroska v1.6.2 Video ID : 1 Format : AVC Format/Info : Advanced Video Codec Format profile : Main@L3.1 Format settings : CABAC / 4 Ref Frames Format settings, CABAC : Yes Format settings, Reference fra : 4 frames Codec ID : V_MPEG4/ISO/AVC Duration : 47 min 59 s Bit rate mode : Variable Bit rate : 4 004 kb/s Maximum bit rate : 40.0 Mb/s Width : 1 920 pixels Height : 1 080 pixels Display aspect ratio : 16:9 Frame rate mode : Constant Frame rate : 29.970 (29970/1000) FPS Original frame rate : 29.970 (30000/1001) FPS Color space : YUV Chroma subsampling : 4:2:0 Bit depth : 8 bits Scan type : Progressive Bits/(Pixel*Frame) : 0.064 Stream size : 1.34 GiB (95%) Default : Yes Forced : No Audio ID : 2 Format : AAC LC Format/Info : Advanced Audio Codec Low Complexity Codec ID : A_AAC-2 Duration : 47 min 59 s Bit rate : 192 kb/s Channel(s) : 2 channels Channel layout : L R Sampling rate : 44.1 kHz Frame rate : 43.066 FPS (1024 SPF) Compression mode : Lossy Stream size : 66.4 MiB (5%) Title : 日本語 [解説放送音声] Language : Japanese Default : Yes Forced : No ```

File list