[MagicStar] 9 Border EP05 [WEBDL] [1080p] [JPN_SUB]

Category:
Date:
2024-05-19 02:33 UTC
Submitter:
Seeders:
12
Information:
Leechers:
0
File size:
782.4 MiB
Completed:
933
Info hash:
5874b27dc2469c63f3c17e4ccf13249c71be77de
HD 1080p from TVer. Japanese subtitles added. ![alt text](https://i.ibb.co/VTsyv4X/25155.jpg) ![alt text](https://i.ibb.co/jHbMRnj/Magic-Star-9-Border-EP05-WEBDL-1080p-mkv.jpg) ``` General Unique ID : 85785663087918341080176043188857980601 (0x4089B7BD6A93F2F00F959386C161C6B9) Complete name : [MagicStar] 9 Border EP05 [WEBDL] [1080p].mkv Format : Matroska Format version : Version 4 File size : 782 MiB Duration : 45 min 9 s Overall bit rate : 2 422 kb/s Frame rate : 29.970 FPS Encoded date : 2024-05-18 15:10:35 UTC Writing application : mkvmerge v50.0.0 ('Awakenings') 64-bit Writing library : libebml v1.4.0 + libmatroska v1.6.2 Video ID : 1 Format : AVC Format/Info : Advanced Video Codec Format profile : High@L4 Format settings : CABAC / 4 Ref Frames Format settings, CABAC : Yes Format settings, Reference fra : 4 frames Codec ID : V_MPEG4/ISO/AVC Duration : 45 min 8 s Bit rate : 2 228 kb/s Width : 1 920 pixels Height : 1 080 pixels Display aspect ratio : 16:9 Frame rate mode : Constant Frame rate : 29.970 (29970/1000) FPS Original frame rate : 29.970 (30000/1001) FPS Color space : YUV Chroma subsampling : 4:2:0 Bit depth : 8 bits Scan type : Progressive Bits/(Pixel*Frame) : 0.036 Stream size : 719 MiB (92%) Default : Yes Forced : No Color range : Limited Color primaries : BT.709 Transfer characteristics : BT.709 Matrix coefficients : BT.709 Audio ID : 2 Format : AAC LC Format/Info : Advanced Audio Codec Low Complexity Codec ID : A_AAC-2 Duration : 45 min 9 s Bit rate : 192 kb/s Channel(s) : 2 channels Channel layout : L R Sampling rate : 48.0 kHz Frame rate : 46.875 FPS (1024 SPF) Compression mode : Lossy Stream size : 62.0 MiB (8%) Title : 日本語 [オリジナル] Language : Japanese Default : Yes Forced : No ```

File list