[MagicStar] Yips EP06 [WEBDL] [1080p] [FOD] [JPN_SUB]

Category:
Date:
2024-05-19 02:33 UTC
Submitter:
Seeders:
6
Information:
Leechers:
6
File size:
1.8 GiB
Completed:
1213
Info hash:
46faf67dc2dcb30b46087a2a0ed14e6a6c37c00a
HD 1080p from FOD. Japanese subtitles added. ************** Support Us Ali (Zhifubao / QR code): https://i.ibb.co/FWV2ggm/1660626347125.png PayPalMe: https://www.paypal.com/paypalme/sakuragikenji BTC (USDT): 19y5NF6voysif7PeJLv86Hf186ZS1i4rwu ETH: 0x807B4eec355Cfa65500BeE65A992a9a0d8432697 LTC: LUC2dTQkte7muv5oUUuRNJimLJvi9pgZUQ ************** ![alt text](https://i.ibb.co/1Mx7hBQ/07354dd2d85e7f4e81ed587fe579b0461504e9b230e8a27788d1887dbfd44039.jpg) ![alt text](https://i.ibb.co/Hh17c8y/Yips-EP06-1080p-FOD-WEB-DL-AAC2-0-H-264-Magic-Star-mkv.jpg) ``` General Unique ID : 230136710974621538671951914883574396982 (0xAD22B7E24DEE87EF9BF015CC6437F836) Complete name : Yips.EP06.1080p.FOD.WEB-DL.AAC2.0.H.264-MagicStar.mkv Format : Matroska Format version : Version 4 File size : 1.83 GiB Duration : 47 min 57 s Overall bit rate mode : Variable Overall bit rate : 5 459 kb/s Frame rate : 29.970 FPS Encoded date : 2024-05-18 14:55:55 UTC Writing application : mkvmerge v50.0.0 ('Awakenings') 64-bit Writing library : libebml v1.4.0 + libmatroska v1.6.2 Video ID : 1 Format : AVC Format/Info : Advanced Video Codec Format profile : High@L4.1 Format settings : CABAC / 2 Ref Frames Format settings, CABAC : Yes Format settings, Reference fra : 2 frames Codec ID : V_MPEG4/ISO/AVC Duration : 47 min 57 s Bit rate mode : Variable Bit rate : 5 265 kb/s Maximum bit rate : 15.0 Mb/s Width : 1 920 pixels Height : 1 080 pixels Display aspect ratio : 16:9 Frame rate mode : Constant Frame rate : 29.970 (29970/1000) FPS Original frame rate : 29.970 (30000/1001) FPS Color space : YUV Chroma subsampling : 4:2:0 Bit depth : 8 bits Scan type : Progressive Bits/(Pixel*Frame) : 0.085 Stream size : 1.76 GiB (96%) Default : Yes Forced : No Audio ID : 2 Format : AAC LC Format/Info : Advanced Audio Codec Low Complexity Codec ID : A_AAC-2 Duration : 47 min 57 s Bit rate : 192 kb/s Channel(s) : 2 channels Channel layout : L R Sampling rate : 48.0 kHz Frame rate : 46.875 FPS (1024 SPF) Compression mode : Lossy Stream size : 65.8 MiB (4%) Title : 日本語 [オリジナル] Language : Japanese Default : Yes Forced : No ```

File list