[neoDESU] Our Dating Story: The Experienced You and The Inexperienced Me [Season 1] [BD 1080p x265 HEVC OPUS] Keikenzumi na Kimi to, Keiken Zero na Ore ga, Otsukiai suru Hanashi | KimiZero

Category:
Date:
2024-05-17 15:45 UTC
Submitter:
Seeders:
16
Information:
Leechers:
1
File size:
2.3 GiB
Completed:
694
Info hash:
3a9734f6b77af8ad6ca3ab77ae347c689361ef8d
![](https://i.lensdump.com/i/6BKULK.png) *Come hang out in **[Discord](https://discord.gg/47Q7FdB54e)*** #### **[Our Dating Story: The Experienced You and The Inexperienced Me [Season 1]](https://myanimelist.net/anime/52990/Keikenzumi_na_Kimi_to_Keiken_Zero_na_Ore_ga_Otsukiai_suru_Hanashi)** --- **Synopsis** To the shy and reclusive Ryuuto Kashima, associating himself with his popular classmate Runa Shirakawa is nothing but a distant fantasy—or so he thought. After losing a bet with his friends and being coerced into confessing to Runa, Ryuuto's world is flipped upside down: instead of the cruel rejection he was expecting, Runa agrees to go out with him! But dating Runa proves to be overwhelming for Ryuuto, who requests that their relationship remain a secret known only by their closest friends. His decision, however, leads to a series of mishaps that he fears will doom the relationship. As they work through their misunderstandings, Ryuuto reveals his insecurities stemming from his past experiences, and the two grow closer together. Just when things are getting back on track, Ryuuto's middle school crush, Maria Kurose, transfers to his class and begins to stir up a fuss. At the same time, terrible rumors about Runa spread around the school, prompting Ryuuto to take desperate measures to protect her. ![](https://c.l3n.co/i/lepNQz.png) --- **Source** 🗃️ Video and JPN Audio (JPN BDMV): **[[Anonymous]](https://nyaa.si/view/1819764)** 🗃️ Subtitles: **[[Chihiro]](https://nyaa.si/view/1813876)** 💬 *Subtitles Info: [Chihiro]* *Thank you all for making this possible <3* --- **Media Info** ``` General Unique ID : 122090588188100616759134923760570964221 (0x5BD9CABEAC28836E08E3A9F3431398FD) Complete name : Our Dating Story - The Experienced You and The Inexperienced Me - S01E01.mkv Format : Matroska Format version : Version 4 File size : 192 MiB Duration : 23 min 42 s Overall bit rate : 1 132 kb/s Encoded date : UTC 2024-05-17 15:04:49 Writing application : mkvmerge v72.0.0 ('Minuano (Six-eight)') 64-bit Writing library : libebml v1.4.4 + libmatroska v1.7.1 / Lavf60.3.100 Attachments : FOT-AokaneStd-EB.otf / FOT-TsukuMin Pr5 M vL.otf / Handwritten_Crystal_v2.ttf / hapole_pencil.ttf / Kozuka Gothic Pro H.otf / PassingNotes.ttf / ShortStack-Regular.ttf Video ID : 1 Format : HEVC Format/Info : High Efficiency Video Coding Format profile : Main 10@L4@High Codec ID : V_MPEGH/ISO/HEVC Duration : 23 min 42 s Bit rate : 976 kb/s Width : 1 920 pixels Height : 1 080 pixels Display aspect ratio : 16:9 Frame rate mode : Constant Frame rate : 23.976 (24000/1001) FPS Color space : YUV Chroma subsampling : 4:2:0 Bit depth : 10 bits Bits/(Pixel*Frame) : 0.020 Stream size : 165 MiB (86%) Writing library : x265 3.5+37+12-4e46995bc:[Windows][MSVC 1931][64 bit] 10bit Encoding settings : cpuid=1111039 / frame-threads=5 / numa-pools=32 / wpp / no-pmode / no-pme / no-psnr / no-ssim / log-level=2 / input-csp=1 / input-res=1920x1080 / interlace=0 / total-frames=24 / level-idc=40 / high-tier=1 / uhd-bd=0 / ref=5 / no-allow-non-conformance / no-repeat-headers / annexb / no-aud / no-eob / no-eos / no-hrd / info / hash=0 / no-temporal-layers / open-gop / min-keyint=23 / keyint=250 / gop-lookahead=0 / bframes=16 / b-adapt=2 / b-pyramid / bframe-bias=0 / rc-lookahead=120 / lookahead-slices=4 / scenecut=40 / no-hist-scenecut / radl=0 / no-splice / no-intra-refresh / ctu=64 / min-cu-size=8 / rect / no-amp / max-tu-size=32 / tu-inter-depth=1 / tu-intra-depth=1 / limit-tu=0 / rdoq-level=1 / dynamic-rd=0.00 / no-ssim-rd / signhide / no-tskip / nr-intra=0 / nr-inter=0 / no-constrained-intra / no-strong-intra-smoothing / max-merge=3 / limit-refs=3 / limit-modes / me=3 / subme=3 / merange=57 / temporal-mvp / no-frame-dup / no-hme / weightp / no-weightb / no-analyze-src-pics / deblock=-1:-1 / no-sao / no-sao-non-deblock / rd=4 / selective-sao=0 / no-early-skip / rskip / no-fast-intra / no-tskip-fast / no-cu-lossless / no-b-intra / no-splitrd-skip / rdpenalty=0 / psy-rd=1.50 / psy-rdoq=2.00 / no-rd-refine / no-lossless / cbqpoffs=0 / crqpoffs=0 / rc=crf / crf=22.5 / qcomp=0.60 / qpstep=4 / stats-write=0 / stats-read=0 / vbv-maxrate=30000 / vbv-bufsize=30000 / vbv-init=0.9 / min-vbv-fullness=50.0 / max-vbv-fullness=80.0 / crf-max=0.0 / crf-min=0.0 / ipratio=1.40 / pbratio=1.30 / aq-mode=3 / aq-strength=0.80 / aq-bias-strength=1.00 / cutree / zone-count=0 / no-strict-cbr / qg-size=32 / no-rc-grain / qpmax=69 / qpmin=0 / no-const-vbv / sar=0 / overscan=0 / videoformat=5 / range=0 / colorprim=2 / transfer=2 / colormatrix=2 / chromaloc=0 / display-window=0 / cll=0,0 / min-luma=0 / max-luma=1023 / log2-max-poc-lsb=8 / vui-timing-info / vui-hrd-info / slices=1 / no-opt-qp-pps / no-opt-ref-list-length-pps / no-multi-pass-opt-rps / scenecut-bias=0.05 / hist-threshold=0.03 / no-opt-cu-delta-qp / no-aq-motion / no-hdr10 / no-hdr10-opt / no-dhdr10-opt / no-idr-recovery-sei / analysis-reuse-level=0 / analysis-save-reuse-level=0 / analysis-load-reuse-level=0 / scale-factor=0 / refine-intra=0 / refine-inter=0 / refine-mv=1 / refine-ctu-distortion=0 / no-limit-sao / ctu-info=0 / no-lowpass-dct / refine-analysis-type=0 / copy-pic=1 / max-ausize-factor=1.0 / no-dynamic-refine / no-single-sei / no-hevc-aq / no-svt / no-field / qp-adaptation-range=1.00 / scenecut-aware-qp=0conformance-window-offsets / right=0 / bottom=0 / decoder-max-rate=0 / no-vbv-live-multi-pass Default : Yes Forced : No Audio ID : 2 Format : Opus Codec ID : A_OPUS Duration : 23 min 42 s Bit rate : 128 kb/s Channel(s) : 2 channels Channel layout : L R Sampling rate : 48.0 kHz Frame rate : 50.000 FPS (960 SPF) Bit depth : 32 bits Compression mode : Lossy Stream size : 21.7 MiB (11%) Title : Japanese Writing library : Lavc60.3.100 libopus Language : Japanese Default : Yes Forced : No Text ID : 3 Format : ASS Codec ID : S_TEXT/ASS Codec ID/Info : Advanced Sub Station Alpha Duration : 23 min 37 s Bit rate : 2 935 b/s Frame rate : 2.473 FPS Count of elements : 3505 Compression mode : Lossless Stream size : 508 KiB (0%) Title : Dialogue Language : English Default : Yes Forced : No Menu 00:00:00.000 : :Intro 00:01:12.970 : :Episode 00:21:55.960 : :ED 00:23:25.970 : :Preview ```

File list

  • [neoDESU] Our Dating Story - The Experienced You and The Inexperienced Me [Season 1] [BD 1080p x265 HEVC OPUS]
    • Our Dating Story - The Experienced You and The Inexperienced Me - S01E01.mkv (191.9 MiB)
    • Our Dating Story - The Experienced You and The Inexperienced Me - S01E02.mkv (190.5 MiB)
    • Our Dating Story - The Experienced You and The Inexperienced Me - S01E03.mkv (195.0 MiB)
    • Our Dating Story - The Experienced You and The Inexperienced Me - S01E04.mkv (224.6 MiB)
    • Our Dating Story - The Experienced You and The Inexperienced Me - S01E05.mkv (219.4 MiB)
    • Our Dating Story - The Experienced You and The Inexperienced Me - S01E06.mkv (172.0 MiB)
    • Our Dating Story - The Experienced You and The Inexperienced Me - S01E07.mkv (186.0 MiB)
    • Our Dating Story - The Experienced You and The Inexperienced Me - S01E08.mkv (220.9 MiB)
    • Our Dating Story - The Experienced You and The Inexperienced Me - S01E09.mkv (195.4 MiB)
    • Our Dating Story - The Experienced You and The Inexperienced Me - S01E10.mkv (153.4 MiB)
    • Our Dating Story - The Experienced You and The Inexperienced Me - S01E11.mkv (172.1 MiB)
    • Our Dating Story - The Experienced You and The Inexperienced Me - S01E12.mkv (187.3 MiB)
>BDMV: Anonymous :clueless:

neoborn (uploader)

User
**@matheousse** I put what they put. If they don't tag or use the anon feature then I don't tag. Some people have their reasons.
neoborn, just fyi, we just put it as anonymous so it doesn't appear when people click the "Chihiro" username to see Chihiro torrents. :P