[MagicStar] Shanai Shokeinin ~ Kanojo wa Teki wo Keshiteiku ~ EP05 [WEBDL] [1080p] [DMM-TV] [V0]

Category:
Date:
2024-05-16 16:41 UTC
Submitter:
Seeders:
6
Information:
Leechers:
0
File size:
740.3 MiB
Completed:
693
Info hash:
6766d2b883444c8b57880515a03e529cf546b09f
HD 1080p from DMM TV. ************** We are planning to upload all DMM TV Dramas and Movies, we need your Support! ************** Support Us Ali (Zhifubao / QR code): https://i.ibb.co/FWV2ggm/1660626347125.png PayPalMe: https://www.paypal.com/paypalme/sakuragikenji BTC (USDT): 19y5NF6voysif7PeJLv86Hf186ZS1i4rwu ETH: 0x807B4eec355Cfa65500BeE65A992a9a0d8432697 LTC: LUC2dTQkte7muv5oUUuRNJimLJvi9pgZUQ ************** ![alt text](https://i.ibb.co/n7jQDyG/Shanai-shokeinin-1.jpg) ![alt text](https://i.ibb.co/c2KNPcB/Shanai-Shokeinin-Kanojo-wa-Teki-wo-Keshiteiku-EP05-1080p-DMM-TV-WEB-DL-AAC2-0-H-264-V0-Magic-Star-mk.jpg) ``` General Unique ID : 54512596106943287863333618095441235540 (0x2902BE7E92ED23FD124077A2E3E6CE54) Complete name : Shanai.Shokeinin.Kanojo.wa.Teki.wo.Keshiteiku.EP05.1080p.DMM-TV.WEB-DL.AAC2.0.H.264.V0-MagicStar.mkv Format : Matroska Format version : Version 4 File size : 740 MiB Duration : 24 min 3 s Overall bit rate : 4 303 kb/s Frame rate : 29.970 FPS Encoded date : 2024-05-16 16:36:42 UTC Writing application : mkvmerge v50.0.0 ('Awakenings') 64-bit Writing library : libebml v1.4.0 + libmatroska v1.6.2 Video ID : 1 Format : AVC Format/Info : Advanced Video Codec Format profile : High@L4 Format settings : CABAC / 1 Ref Frames Format settings, CABAC : Yes Format settings, Reference fra : 1 frame Format settings, GOP : M=1, N=24 Codec ID : V_MPEG4/ISO/AVC Duration : 24 min 3 s Bit rate mode : Constant Bit rate : 4 113 kb/s Width : 1 920 pixels Height : 1 080 pixels Display aspect ratio : 16:9 Frame rate mode : Constant Frame rate : 29.970 (29970/1000) FPS Original frame rate : 29.970 (30000/1001) FPS Color space : YUV Chroma subsampling : 4:2:0 Bit depth : 8 bits Scan type : Progressive Bits/(Pixel*Frame) : 0.066 Stream size : 696 MiB (94%) Default : Yes Forced : No Color range : Limited Color primaries : BT.709 Transfer characteristics : BT.709 Matrix coefficients : BT.709 Audio ID : 2 Format : AAC LC Format/Info : Advanced Audio Codec Low Complexity Codec ID : A_AAC-2 Duration : 24 min 3 s Bit rate : 256 kb/s Channel(s) : 2 channels Channel layout : L R Sampling rate : 48.0 kHz Frame rate : 46.875 FPS (1024 SPF) Compression mode : Lossy Stream size : 44.0 MiB (6%) Title : 日本語 [オリジナル] Language : Japanese Default : Yes Forced : No ```

File list