[MagicStar] Re:Revenge - Yokubou no Hate ni - EP06 [WEBDL] [1080p] [FOD] [JPN_SUB]

Category:
Date:
2024-05-16 14:19 UTC
Submitter:
Seeders:
13
Information:
Leechers:
1
File size:
858.1 MiB
Completed:
964
Info hash:
81573a3df0bae466376a2c3316942bcf7e6c0258
HD 1080p from FOD. Japanese subtitles added. ************** Support Us Ali (Zhifubao / QR code): https://i.ibb.co/FWV2ggm/1660626347125.png PayPalMe: https://www.paypal.com/paypalme/sakuragikenji BTC (USDT): 19y5NF6voysif7PeJLv86Hf186ZS1i4rwu ETH: 0x807B4eec355Cfa65500BeE65A992a9a0d8432697 LTC: LUC2dTQkte7muv5oUUuRNJimLJvi9pgZUQ ************** ![alt text](https://i.ibb.co/dQ2k20p/f39daa64ed2fb036047a24b77d8ef64389afc555c180d306532b7abaf87b7c95.jpg) ![alt text](https://i.ibb.co/0Zm069d/Re-Revenge-Yokubou-no-Hate-ni-EP06-1080p-FOD-WEB-DL-AAC2-0-H-264-Magic-Star-mkv.jpg) ``` General Unique ID : 244017864086662274397740067063819461812 (0xB794219274BEC0D02DFB31EBF440E4B4) Complete name : Re.Revenge.Yokubou.no.Hate.ni.EP06.1080p.FOD.WEB-DL.AAC2.0.H.264-MagicStar.mkv Format : Matroska Format version : Version 4 File size : 858 MiB Duration : 46 min 25 s Overall bit rate mode : Variable Overall bit rate : 2 584 kb/s Frame rate : 29.970 FPS Encoded date : 2024-05-16 14:17:00 UTC Writing application : mkvmerge v50.0.0 ('Awakenings') 64-bit Writing library : libebml v1.4.0 + libmatroska v1.6.2 Video ID : 1 Format : AVC Format/Info : Advanced Video Codec Format profile : High@L4.1 Format settings : CABAC / 2 Ref Frames Format settings, CABAC : Yes Format settings, Reference fra : 2 frames Codec ID : V_MPEG4/ISO/AVC Duration : 46 min 24 s Bit rate mode : Variable Bit rate : 2 390 kb/s Maximum bit rate : 15.0 Mb/s Width : 1 920 pixels Height : 1 080 pixels Display aspect ratio : 16:9 Frame rate mode : Constant Frame rate : 29.970 (29970/1000) FPS Original frame rate : 29.970 (30000/1001) FPS Color space : YUV Chroma subsampling : 4:2:0 Bit depth : 8 bits Scan type : Progressive Bits/(Pixel*Frame) : 0.038 Stream size : 793 MiB (92%) Default : Yes Forced : No Audio ID : 2 Format : AAC LC Format/Info : Advanced Audio Codec Low Complexity Codec ID : A_AAC-2 Duration : 46 min 25 s Bit rate : 192 kb/s Channel(s) : 2 channels Channel layout : L R Sampling rate : 48.0 kHz Frame rate : 46.875 FPS (1024 SPF) Compression mode : Lossy Stream size : 63.7 MiB (7%) Title : 日本語 [オリジナル] Language : Japanese Default : Yes Forced : No ```

File list