[MagicStar] Believe - Kimi ni Kakeru Hashi - EP04 [WEBDL] [1080p] [JPN_SUB] [Audio Description]

Category:
Date:
2024-05-16 13:13 UTC
Submitter:
Seeders:
3
Information:
Leechers:
0
File size:
1.0 GiB
Completed:
311
Info hash:
7d9e681abea4716b43576fb1c980e66fa832e016
HD 1080p from TVer. Japanese subtitles added. Audio description. ![alt text](https://i.ibb.co/dmpKZq2/GK2c-ZGob-UAAe-UUL.jpg) ![alt text](https://i.ibb.co/rvfMKxq/Magic-Star-Believe-Kimi-ni-Kakeru-Hashi-EP04-WEBDL-1080p-Audio-Description-mkv.jpg) ``` General Unique ID : 191497374557018629657733567200384239659 (0x90110D83D9133F2C613D6E859E8BC82B) Complete name : [MagicStar] Believe - Kimi ni Kakeru Hashi - EP04 [WEBDL] [1080p] [Audio Description].mkv Format : Matroska Format version : Version 4 File size : 1.00 GiB Duration : 50 min 7 s Overall bit rate : 2 864 kb/s Frame rate : 29.970 FPS Encoded date : 2024-05-16 13:10:34 UTC Writing application : mkvmerge v50.0.0 ('Awakenings') 64-bit Writing library : libebml v1.4.0 + libmatroska v1.6.2 Video ID : 1 Format : AVC Format/Info : Advanced Video Codec Format profile : High@L4 Format settings : CABAC / 4 Ref Frames Format settings, CABAC : Yes Format settings, Reference fra : 4 frames Codec ID : V_MPEG4/ISO/AVC Duration : 50 min 6 s Bit rate : 2 669 kb/s Width : 1 920 pixels Height : 1 080 pixels Display aspect ratio : 16:9 Frame rate mode : Constant Frame rate : 29.970 (29970/1000) FPS Original frame rate : 29.970 (30000/1001) FPS Color space : YUV Chroma subsampling : 4:2:0 Bit depth : 8 bits Scan type : Progressive Bits/(Pixel*Frame) : 0.043 Stream size : 957 MiB (93%) Default : Yes Forced : No Color range : Limited Matrix coefficients : BT.709 Audio ID : 2 Format : AAC LC Format/Info : Advanced Audio Codec Low Complexity Codec ID : A_AAC-2 Duration : 50 min 7 s Bit rate : 192 kb/s Channel(s) : 2 channels Channel layout : L R Sampling rate : 48.0 kHz Frame rate : 46.875 FPS (1024 SPF) Compression mode : Lossy Stream size : 68.7 MiB (7%) Title : 日本語 [解説放送音声] Language : Japanese Default : Yes Forced : No ```

File list