[MagicStar] Believe - Kimi ni Kakeru Hashi - EP04 [WEBDL] [1080p] [JPN_SUB]

Category:
Date:
2024-05-16 13:13 UTC
Submitter:
Seeders:
15
Information:
Leechers:
2
File size:
1.0 GiB
Completed:
1670
Info hash:
4d158a52c4a86f8774f245abb56a69aec11c943b
HD 1080p from TVer. Japanese subtitles added. ![alt text](https://i.ibb.co/dmpKZq2/GK2c-ZGob-UAAe-UUL.jpg) ![alt text](https://i.ibb.co/WVNSc68/Magic-Star-Believe-Kimi-ni-Kakeru-Hashi-EP04-WEBDL-1080p-mkv.jpg) ``` General Unique ID : 15713727224830733174688099915108517507 (0xBD25A9153DEAC6A23B081A5161D0683) Complete name : [MagicStar] Believe - Kimi ni Kakeru Hashi - EP04 [WEBDL] [1080p].mkv Format : Matroska Format version : Version 4 File size : 1.01 GiB Duration : 50 min 21 s Overall bit rate : 2 863 kb/s Frame rate : 29.970 FPS Encoded date : 2024-05-16 13:06:18 UTC Writing application : mkvmerge v50.0.0 ('Awakenings') 64-bit Writing library : libebml v1.4.0 + libmatroska v1.6.2 Video ID : 1 Format : AVC Format/Info : Advanced Video Codec Format profile : High@L4 Format settings : CABAC / 4 Ref Frames Format settings, CABAC : Yes Format settings, Reference fra : 4 frames Codec ID : V_MPEG4/ISO/AVC Duration : 50 min 21 s Bit rate : 2 669 kb/s Width : 1 920 pixels Height : 1 080 pixels Display aspect ratio : 16:9 Frame rate mode : Constant Frame rate : 29.970 (29970/1000) FPS Original frame rate : 29.970 (30000/1001) FPS Color space : YUV Chroma subsampling : 4:2:0 Bit depth : 8 bits Scan type : Progressive Bits/(Pixel*Frame) : 0.043 Stream size : 961 MiB (93%) Default : Yes Forced : No Color range : Limited Matrix coefficients : BT.709 Audio ID : 2 Format : AAC LC Format/Info : Advanced Audio Codec Low Complexity Codec ID : A_AAC-2 Duration : 50 min 21 s Bit rate : 192 kb/s Channel(s) : 2 channels Channel layout : L R Sampling rate : 48.0 kHz Frame rate : 46.875 FPS (1024 SPF) Compression mode : Lossy Stream size : 69.0 MiB (7%) Title : 日本語 [オリジナル] Language : Japanese Default : Yes Forced : No ```

File list