[MagicStar] Kawareta Otoko EP06 [WEBDL] [1080p] [DMM-TV] [EP05_JPN_SUB] [V0]

Category:
Date:
2024-05-16 13:12 UTC
Submitter:
Seeders:
1
File size:
1.2 GiB
Completed:
490
Info hash:
6accfeb0641d3464ffecd6ce1f40eeed87b5e92b
HD 1080p from DMM TV. Episode.5 Japanese subtitles added. ************** We are planning to upload all DMM TV Dramas and Movies, we need your Support! ************** Support Us Ali (Zhifubao / QR code): https://i.ibb.co/FWV2ggm/1660626347125.png PayPalMe: https://www.paypal.com/paypalme/sakuragikenji BTC (USDT): 19y5NF6voysif7PeJLv86Hf186ZS1i4rwu ETH: 0x807B4eec355Cfa65500BeE65A992a9a0d8432697 LTC: LUC2dTQkte7muv5oUUuRNJimLJvi9pgZUQ ************** ![alt text](https://i.ibb.co/TPRWGVp/Kawareta-otoko-1.jpg) ![alt text](https://i.ibb.co/89D3G11/Kawareta-Otoko-EP06-1080p-DMM-TV-WEB-DL-AAC2-0-H-264-V0-Magic-Star-mkv.jpg) ``` General Unique ID : 165496314830639398748422123377030240147 (0x7C816E4BA60D0432B2F8B22657369793) Complete name : Kawareta.Otoko.EP06.1080p.DMM-TV.WEB-DL.AAC2.0.H.264.V0-MagicStar.mkv Format : Matroska Format version : Version 4 File size : 1.24 GiB Duration : 23 min 25 s Overall bit rate : 7 567 kb/s Frame rate : 23.976 FPS Encoded date : 2024-05-16 04:51:55 UTC Writing application : mkvmerge v50.0.0 ('Awakenings') 64-bit Writing library : libebml v1.4.0 + libmatroska v1.6.2 Cover : Yes Attachments : cover.png Video ID : 1 Format : AVC Format/Info : Advanced Video Codec Format profile : High@L4 Format settings : CABAC / 1 Ref Frames Format settings, CABAC : Yes Format settings, Reference fra : 1 frame Format settings, GOP : M=1, N=24 Codec ID : V_MPEG4/ISO/AVC Duration : 23 min 24 s Bit rate mode : Constant Bit rate : 7 303 kb/s Width : 1 920 pixels Height : 1 080 pixels Display aspect ratio : 16:9 Frame rate mode : Constant Frame rate : 23.976 (24000/1001) FPS Color space : YUV Chroma subsampling : 4:2:0 Bit depth : 8 bits Scan type : Progressive Bits/(Pixel*Frame) : 0.147 Stream size : 1.19 GiB (96%) Default : Yes Forced : No Color range : Limited Color primaries : BT.709 Transfer characteristics : BT.709 Matrix coefficients : BT.709 Audio ID : 2 Format : AAC LC Format/Info : Advanced Audio Codec Low Complexity Codec ID : A_AAC-2 Duration : 23 min 25 s Bit rate : 256 kb/s Channel(s) : 2 channels Channel layout : L R Sampling rate : 48.0 kHz Frame rate : 46.875 FPS (1024 SPF) Compression mode : Lossy Stream size : 42.9 MiB (3%) Title : 日本語 [オリジナル] Language : Japanese Default : Yes Forced : No ```

File list