Digimon.Savers.Ultimate.Power.Activate.Burst.Mode.2006.1080p.BluRay.Dual-Audio.FLAC.2.0.AAC.2.0.x264-VeloEncodes

Category:
Date:
2024-05-15 19:55 UTC
Submitter:
Seeders:
20
Information:
Leechers:
3
File size:
1.6 GiB
Completed:
195
Info hash:
741d1424c8c34ae0713ec0056c559407ebcaee6f
![velologo](https://i.ibb.co/NnVYvJY/hrtFLIT.jpg) ![boxart](https://i.ibb.co/3kGt0qc/bluraybox.jpg) So I finally did it. Found the Hong Kong English dub of the *Digimon Savers* movie on archive.org, downloaded it, and "enhanced" and synced the audio from it by means of UVR and my go-to magic bullet of a software, DaVinci Resolve. Since this movie never got a dubbed release in the US, this is the best way for now to enjoy this movie in HD if you are a dub enthusiast. You're welcome, my fellow DigiDudes! **MediaInfo:** ``` General Unique ID : 280950706484257431075448913547008768566 (0xD35D234A3C05F237BD201197B2FD7A36) Complete name : /Volumes/My Passport 1/Movies/Digimon.Savers.Ultimate.Power.Activate.Burst.Mode.2006.1080p.BluRay.Dual-Audio.FLAC.2.0.AAC.2.0.x264-VeloEncodes.mkv Format : Matroska Format version : Version 4 File size : 1.61 GiB Duration : 21 min 0 s Overall bit rate mode : Variable Overall bit rate : 11.0 Mb/s Frame rate : 23.976 FPS Movie name : Digimon Savers: Ultimate Power! Activate Burst Mode! (2006) 1080p BluRay Dual-Audio FLAC 2.0 AAC 2.0 x264-VeloEncodes Encoded date : 2024-05-15 19:18:49 UTC Writing application : mkvmerge v71.1.0 ('Fortitude') 64-bit Writing library : libebml v1.4.4 + libmatroska v1.7.1 Attachments : Chinacat (B)_0.ttf / Marker Felt_0.ttf / Chinacat (B)_0.ttf / Marker Felt_0.ttf Video ID : 1 Format : AVC Format/Info : Advanced Video Codec Format profile : High@L4.1 Format settings : CABAC / 4 Ref Frames Format settings, CABAC : Yes Format settings, Reference frames : 4 frames Codec ID : V_MPEG4/ISO/AVC Duration : 21 min 0 s Bit rate : 10 000 kb/s Width : 1 920 pixels Height : 1 080 pixels Display aspect ratio : 16:9 Frame rate mode : Constant Frame rate : 23.976 (24000/1001) FPS Color space : YUV Chroma subsampling : 4:2:0 Bit depth : 8 bits Scan type : Progressive Bits/(Pixel*Frame) : 0.201 Stream size : 1.47 GiB (91%) Title : JPBD video (encoded by EMTP-Raws) Writing library : x264 core 125 r2200 999b753 Encoding settings : cabac=1 / ref=4 / deblock=1:-1:-1 / analyse=0x3:0x113 / me=umh / subme=9 / psy=1 / psy_rd=1.00:0.00 / mixed_ref=1 / me_range=24 / chroma_me=1 / trellis=2 / 8x8dct=1 / cqm=0 / deadzone=21,11 / fast_pskip=1 / chroma_qp_offset=-2 / threads=18 / lookahead_threads=3 / sliced_threads=0 / nr=0 / decimate=1 / interlaced=0 / bluray_compat=0 / constrained_intra=0 / bframes=3 / b_pyramid=0 / b_adapt=2 / b_bias=0 / direct=3 / weightb=1 / open_gop=0 / weightp=2 / keyint=240 / keyint_min=23 / scenecut=40 / intra_refresh=0 / rc_lookahead=50 / rc=2pass / mbtree=1 / bitrate=10000 / ratetol=1.0 / qcomp=0.60 / qpmin=10 / qpmax=51 / qpstep=4 / cplxblur=20.0 / qblur=0.5 / vbv_maxrate=50000 / vbv_bufsize=50000 / nal_hrd=none / ip_ratio=1.40 / aq=1:1.00 Language : Japanese Default : Yes Forced : No Audio #1 ID : 2 Format : FLAC Format/Info : Free Lossless Audio Codec Codec ID : A_FLAC Duration : 21 min 0 s Bit rate mode : Variable Bit rate : 668 kb/s Channel(s) : 2 channels Channel layout : L R Sampling rate : 48.0 kHz Frame rate : 11.719 FPS (4096 SPF) Bit depth : 16 bits Compression mode : Lossless Stream size : 100 MiB (6%) Title : Original Japanese audio (encoded by EMTP-Raws) Writing library : libFLAC 1.2.1 (2007-09-17) Language : Japanese Default : No Forced : No MD5 of the unencoded content : B5B761CB081B539559F35362011D5C61 Audio #2 ID : 3 Format : AAC LC Format/Info : Advanced Audio Codec Low Complexity Codec ID : A_AAC-2 Duration : 21 min 0 s Bit rate : 320 kb/s Channel(s) : 2 channels Channel layout : L R Sampling rate : 48.0 kHz Frame rate : 46.875 FPS (1024 SPF) Compression mode : Lossy Stream size : 48.1 MiB (3%) Title : Hong Kong English dub (Disney XD) Language : English (HK) Default : Yes Forced : No Text #1 ID : 4 Format : ASS Codec ID : S_TEXT/ASS Codec ID/Info : Advanced Sub Station Alpha Duration : 20 min 23 s Bit rate : 11 b/s Frame rate : 0.027 FPS Count of elements : 33 Compression mode : Lossless Stream size : 1.75 KiB (0%) Title : Styled signs Language : English Default : Yes Forced : No Text #2 ID : 5 Format : ASS Codec ID : S_TEXT/ASS Codec ID/Info : Advanced Sub Station Alpha Duration : 20 min 29 s Bit rate : 71 b/s Frame rate : 0.188 FPS Count of elements : 231 Compression mode : Lossless Stream size : 10.7 KiB (0%) Title : Styled subs Language : English Default : No Forced : No Menu 00:00:06.250 : en:01 - The end of the world 00:02:32.250 : en:02 - Argomon's minions attack 00:06:38.500 : en:03 - Rhythm's exposition 00:08:01.950 : en:04 - Assault on Argomon's castle 00:09:55.550 : en:05 - Argomon appears 00:13:26.650 : en:06 - Argomon evolves 00:15:25.420 : en:07 - Masaru and GeoGreymon 00:17:40.580 : en:08 - Burst Mode 00:19:11.000 : en:09 - Farewell 00:19:55.800 : en:10 - End Credits ``` | **Stream** | **Source** | |-------------------------|---------------------------------------------------------| | Video | JPBD video (encoded by EMTP-Raws) | | Original Japanese audio | EMTP-Raws | | Hong Kong English dub | Disney XD Hong Kong (synced by VeloEncodes) | | Styled signs | Ryuu-Rogue (edited and restyled by SID and VeloEncodes) | | Styled subs | Ryuu-Rogue (edited by SID and restyled by VeloEncodes) | | Chapters | SID | **Screenshots:** ![1](https://i.ibb.co/SyGXG7g/vlcsnap-2024-05-16-01h11m54s318.png) ![2](https://i.ibb.co/KGgFzNc/vlcsnap-2024-05-16-01h12m01s719.png) ![3](https://i.ibb.co/c3ym8vv/vlcsnap-2024-05-16-01h12m25s858.png) ![4](https://i.ibb.co/8D6J4yq/vlcsnap-2024-05-16-01h12m43s691.png) ![5](https://i.ibb.co/5WFcZmg/vlcsnap-2024-05-16-01h12m59s317.png) ![6](https://i.ibb.co/bJXrjv1/vlcsnap-2024-05-16-01h13m19s075.png) ![7](https://i.ibb.co/FxPg6xH/vlcsnap-2024-05-16-01h13m25s374.png) ![8](https://i.ibb.co/nDL9RwF/vlcsnap-2024-05-16-01h13m36s687.png) If you like what you see, and would like to donate, please do consider checking out my Patreon [here](<https://www.patreon.com/basedvelo>). *Enjoy, and don't forget to seed!*

File list

  • Digimon.Savers.Ultimate.Power.Activate.Burst.Mode.2006.1080p.BluRay.Dual-Audio.FLAC.2.0.AAC.2.0.x264-VeloEncodes.mkv (1.6 GiB)