[MagicStar] Tokusou 9 Season7 EP07 [WEBDL] [1080p] [JPN_SUB]

Category:
Date:
2024-05-15 13:52 UTC
Submitter:
Seeders:
6
Information:
Leechers:
0
File size:
861.6 MiB
Completed:
617
Info hash:
30f99dbb24f0e9e2550a802fa2118c9820c71a5b
HD 1080p from TVer. Japanese subtitles added. ![alt text](https://i.ibb.co/n32g1Ft/d5a5cd3b-73d0-4fbd-b32e-62ebdc286d10.jpg) ![alt text](https://i.ibb.co/4ZS5f8q/Magic-Star-Tokusou-9-Season7-EP07-WEBDL-1080p-mkv.jpg) ``` General Unique ID : 65512815395891990691488943355114769868 (0x31494F2DB55F5BEF34E83E5EE9934DCC) Complete name : [MagicStar] Tokusou 9 Season7 EP07 [WEBDL] [1080p].mkv Format : Matroska Format version : Version 4 File size : 862 MiB Duration : 44 min 48 s Overall bit rate : 2 689 kb/s Frame rate : 29.970 FPS Encoded date : 2024-05-15 13:36:07 UTC Writing application : mkvmerge v50.0.0 ('Awakenings') 64-bit Writing library : libebml v1.4.0 + libmatroska v1.6.2 Video ID : 1 Format : AVC Format/Info : Advanced Video Codec Format profile : High@L4 Format settings : CABAC / 4 Ref Frames Format settings, CABAC : Yes Format settings, Reference fra : 4 frames Codec ID : V_MPEG4/ISO/AVC Duration : 44 min 47 s Bit rate : 2 494 kb/s Width : 1 920 pixels Height : 1 080 pixels Display aspect ratio : 16:9 Frame rate mode : Constant Frame rate : 29.970 (29970/1000) FPS Original frame rate : 29.970 (30000/1001) FPS Color space : YUV Chroma subsampling : 4:2:0 Bit depth : 8 bits Scan type : Progressive Bits/(Pixel*Frame) : 0.040 Stream size : 799 MiB (93%) Default : Yes Forced : No Color range : Limited Matrix coefficients : BT.709 Audio ID : 2 Format : AAC LC Format/Info : Advanced Audio Codec Low Complexity Codec ID : A_AAC-2 Duration : 44 min 48 s Bit rate : 192 kb/s Channel(s) : 2 channels Channel layout : L R Sampling rate : 48.0 kHz Frame rate : 46.875 FPS (1024 SPF) Compression mode : Lossy Stream size : 61.4 MiB (7%) Title : 日本語 [オリジナル] Language : Japanese Default : Yes Forced : No ```

File list