[MagicStar] Kanzou wo Ubawareta Tsuma - Spin-off - EP04 [WEBDL] [1080p]

Category:
Date:
2024-05-15 04:07 UTC
Submitter:
Seeders:
4
Information:
Leechers:
0
File size:
107.2 MiB
Completed:
494
Info hash:
856426ac19d3c761b763872ec403972c7522d7eb
HD 1080p from TVer. ![alt text](https://i.ibb.co/WncQQLk/40e2ac60-3577-4913-847b-5dd15ea99d96b.jpg) ![alt text](https://i.ibb.co/hsCcYzN/Magic-Star-Kanzou-wo-Ubawareta-Tsuma-Spin-off-EP04-WEBDL-1080p-mkv.jpg) ``` General Unique ID : 104927187947560050182226762098957285216 (0x4EF03DC77739628F39412E3D1936F760) Complete name : [MagicStar] Kanzou wo Ubawareta Tsuma - Spin-off - EP04 [WEBDL] [1080p].mkv Format : Matroska Format version : Version 4 File size : 107 MiB Duration : 6 min 23 s Overall bit rate : 2 345 kb/s Frame rate : 29.970 FPS Encoded date : 2024-05-14 20:03:49 UTC Writing application : mkvmerge v50.0.0 ('Awakenings') 64-bit Writing library : libebml v1.4.0 + libmatroska v1.6.2 Video ID : 1 Format : AVC Format/Info : Advanced Video Codec Format profile : High@L4 Format settings : CABAC / 4 Ref Frames Format settings, CABAC : Yes Format settings, Reference fra : 4 frames Codec ID : V_MPEG4/ISO/AVC Duration : 6 min 23 s Bit rate : 2 151 kb/s Width : 1 920 pixels Height : 1 080 pixels Display aspect ratio : 16:9 Frame rate mode : Constant Frame rate : 29.970 (29970/1000) FPS Original frame rate : 29.970 (30000/1001) FPS Color space : YUV Chroma subsampling : 4:2:0 Bit depth : 8 bits Scan type : Progressive Bits/(Pixel*Frame) : 0.035 Stream size : 98.3 MiB (92%) Default : Yes Forced : No Color range : Limited Color primaries : BT.709 Transfer characteristics : BT.709 Matrix coefficients : BT.709 Audio ID : 2 Format : AAC LC Format/Info : Advanced Audio Codec Low Complexity Codec ID : A_AAC-2 Duration : 6 min 23 s Bit rate : 192 kb/s Channel(s) : 2 channels Channel layout : L R Sampling rate : 48.0 kHz Frame rate : 46.875 FPS (1024 SPF) Compression mode : Lossy Stream size : 8.77 MiB (8%) Title : 日本語 [オリジナル] Language : Japanese Default : Yes Forced : No ```

File list