Digimon.Frontier.Island.of.Lost.Digimon.2002.1080p.BluRay.Dual-Audio.FLAC.2.0.AAC.2.0.x264-VeloEncodes

Category:
Date:
2024-05-14 19:39 UTC
Submitter:
Seeders:
9
Information:
Leechers:
1
File size:
2.5 GiB
Completed:
400
Info hash:
45d570161803e61ecb80d262b806e7e14bbbd76e
![velologo](https://i.ibb.co/NnVYvJY/hrtFLIT.jpg) ![boxart](https://i.ibb.co/3kGt0qc/bluraybox.jpg) The *Digimon Frontier* movie in majestic 1080p, dual-audio goodness. This was a pain and a half in the ass to sync. The Studiopolis dub that aired on TV had weird scene cuts, and freeze frames, that necessitated slowing down the audio for the dub in some parts of the final act. Luckily, Aegisub works on macOS now, so enjoy what little subtitle work I was able to do on this from the existing subs. **MediaInfo:** ``` General Unique ID : 245822412225579479043128704369674204864 (0xB8EFACAA1C31B66C8E46B9BFF1A4B6C0) Complete name : /Volumes/My Passport 1/Movies/Digimon.Frontier.Island.of.Lost.Digimon.2002.1080p.BluRay.Dual-Audio.FLAC.2.0.AAC.2.0.x264-VeloEncodes/Digimon.Frontier.Island.of.Lost.Digimon.2002.1080p.BluRay.Dual-Audio.FLAC.2.0.AAC.2.0.x264-VeloEncodes.mkv Format : Matroska Format version : Version 4 File size : 2.54 GiB Duration : 40 min 28 s Overall bit rate mode : Variable Overall bit rate : 8 994 kb/s Frame rate : 23.976 FPS Movie name : Digimon Frontier: Island of Lost Digimon (2002) BluRay Dual-Audio FLAC 2.0 AAC 2.0 x264-VeloEncodes Encoded date : 2024-05-13 15:12:02 UTC Writing application : mkvmerge v71.1.0 ('Fortitude') 64-bit Writing library : libebml v1.4.4 + libmatroska v1.7.1 Attachments : SourceSansPro-Bold_0.ttf / CREABBB__0.TTF / CCComicrazy-Roman_0.ttf Video ID : 1 Format : AVC Format/Info : Advanced Video Codec Format profile : High@L4.1 Format settings : CABAC / 4 Ref Frames Format settings, CABAC : Yes Format settings, Reference frames : 4 frames Codec ID : V_MPEG4/ISO/AVC Duration : 40 min 28 s Bit rate : 8 000 kb/s Width : 1 912 pixels Height : 1 052 pixels Display aspect ratio : 16:9 Frame rate mode : Constant Frame rate : 23.976 (24000/1001) FPS Color space : YUV Chroma subsampling : 4:2:0 Bit depth : 8 bits Scan type : Progressive Bits/(Pixel*Frame) : 0.166 Stream size : 2.26 GiB (89%) Title : JPBD video (encoded by EMTP-Raws) Writing library : x264 core 125 r2200 999b753 Encoding settings : cabac=1 / ref=4 / deblock=1:-1:-1 / analyse=0x3:0x113 / me=umh / subme=9 / psy=1 / psy_rd=1.00:0.00 / mixed_ref=1 / me_range=24 / chroma_me=1 / trellis=2 / 8x8dct=1 / cqm=0 / deadzone=21,11 / fast_pskip=1 / chroma_qp_offset=-2 / threads=18 / lookahead_threads=3 / sliced_threads=0 / nr=0 / decimate=1 / interlaced=0 / bluray_compat=0 / constrained_intra=0 / bframes=3 / b_pyramid=0 / b_adapt=2 / b_bias=0 / direct=3 / weightb=1 / open_gop=0 / weightp=2 / keyint=240 / keyint_min=23 / scenecut=40 / intra_refresh=0 / rc_lookahead=50 / rc=2pass / mbtree=1 / bitrate=8000 / ratetol=1.0 / qcomp=0.60 / qpmin=10 / qpmax=51 / qpstep=4 / cplxblur=20.0 / qblur=0.5 / vbv_maxrate=50000 / vbv_bufsize=50000 / nal_hrd=none / ip_ratio=1.40 / aq=1:1.00 Language : Japanese Default : Yes Forced : No Audio #1 ID : 2 Format : FLAC Format/Info : Free Lossless Audio Codec Codec ID : A_FLAC Duration : 40 min 28 s Bit rate mode : Variable Bit rate : 669 kb/s Channel(s) : 2 channels Channel layout : L R Sampling rate : 48.0 kHz Frame rate : 11.719 FPS (4096 SPF) Bit depth : 16 bits Compression mode : Lossless Stream size : 194 MiB (7%) Title : Original Japanese audio (encoded by EMTP-Raws) Writing library : libFLAC 1.2.1 (2007-09-17) Language : Japanese Default : No Forced : No MD5 of the unencoded content : 273D96B73767EEB9ABBA3FFAD1C481D0 Audio #2 ID : 3 Format : AAC LC Format/Info : Advanced Audio Codec Low Complexity Codec ID : A_AAC-2 Duration : 40 min 28 s Bit rate : 320 kb/s Channel(s) : 2 channels Channel layout : L R Sampling rate : 48.0 kHz Frame rate : 46.875 FPS (1024 SPF) Compression mode : Lossy Stream size : 92.6 MiB (4%) Title : Studiopolis English dub Language : English Default : Yes Forced : No Text #1 ID : 4 Format : ASS Codec ID : S_TEXT/ASS Codec ID/Info : Advanced Sub Station Alpha Duration : 37 min 34 s Bit rate : 7 b/s Frame rate : 0.013 FPS Count of elements : 30 Compression mode : Lossless Stream size : 2.04 KiB (0%) Title : Styled signs Language : English Default : Yes Forced : No Text #2 ID : 5 Format : ASS Codec ID : S_TEXT/ASS Codec ID/Info : Advanced Sub Station Alpha Duration : 39 min 38 s Bit rate : 86 b/s Frame rate : 0.231 FPS Count of elements : 550 Compression mode : Lossless Stream size : 25.2 KiB (0%) Title : DVD subs Language : English Default : No Forced : No Menu 00:00:00.000 : en:Chapter 01(Opening) 00:02:55.301 : en:Chapter 02 00:06:26.637 : en:Chapter 03 00:10:33.216 : en:Chapter 04 00:13:07.329 : en:Chapter 05 00:15:26.926 : en:Chapter 06 00:21:29.163 : en:Chapter 07 00:24:11.951 : en:Chapter 08 00:29:16.172 : en:Chapter 09 00:31:52.953 : en:Chapter 10 00:34:46.001 : en:Chapter 11 00:38:55.042 : en:Chapter 12(Ending) ``` | **Stream** | **Source** | |-------------------------|-------------------------------------------------------------| | Video | JPBD video (encoded by EMTP-Raws) | | Original Japanese audio | EMTP-Raws | | Studiopolis English dub | TVrip audio (synced by VeloEncodes) | | Styled signs | PositronCannon (edited and restyled by VeloEncodes and SID) | | DVD subs | PositronCannon (edited and restyled by SID) | **Screenshots:** ![1](https://i.ibb.co/h9F4ZMC/vlcsnap-2024-05-13-21h45m04s382.png) ![2](https://i.ibb.co/0jxfm1m/vlcsnap-2024-05-13-21h45m28s345.png) ![3](https://i.ibb.co/9Yr6YL2/vlcsnap-2024-05-13-21h45m56s148.png) ![4](https://i.ibb.co/XCvqwZn/vlcsnap-2024-05-13-21h47m40s627.png) ![5](https://i.ibb.co/tKdPWg9/vlcsnap-2024-05-13-21h48m04s360.png) ![6](https://i.ibb.co/qmmbtK7/vlcsnap-2024-05-13-21h48m54s745.png) ![7](https://i.ibb.co/tLg74Th/vlcsnap-2024-05-13-21h49m08s487.png) If you like what you see, and would like to donate, please do consider checking out my Patreon [here](<https://www.patreon.com/basedvelo>). *Enjoy, and don't forget to seed!*

File list