[MagicStar] 366 Days EP06 [WEBDL] [1080p] [FOD] [JPN_SUB]

Category:
Date:
2024-05-13 13:14 UTC
Submitter:
Seeders:
13
Information:
Leechers:
2
File size:
1.3 GiB
Completed:
1023
Info hash:
78051f08de21b33ed1e73604dac3d11efd4c110b
HD 1080p from FOD. Japanese subtitles added. ************** Support Us Ali (Zhifubao / QR code): https://i.ibb.co/FWV2ggm/1660626347125.png PayPalMe: https://www.paypal.com/paypalme/sakuragikenji BTC (USDT): 19y5NF6voysif7PeJLv86Hf186ZS1i4rwu ETH: 0x807B4eec355Cfa65500BeE65A992a9a0d8432697 LTC: LUC2dTQkte7muv5oUUuRNJimLJvi9pgZUQ ************** ![alt text](https://i.ibb.co/Z6NCKQt/dedb5cb2549b1292a6f809ba4d2a1c0bc198766b2969feaaa34f24f0730ed2e4.jpg) ![alt text](https://i.ibb.co/kHMv2DQ/366-Days-EP06-1080p-FOD-WEB-DL-AAC2-0-H-264-Magic-Star-mkv.jpg) ``` General Unique ID : 322820025383165214116114631971625132944 (0xF2DCE01727DE8B5A791C284BCCAE6390) Complete name : 366.Days.EP06.1080p.FOD.WEB-DL.AAC2.0.H.264-MagicStar.mkv Format : Matroska Format version : Version 4 File size : 1.26 GiB Duration : 46 min 22 s Overall bit rate mode : Variable Overall bit rate : 3 896 kb/s Frame rate : 29.970 FPS Encoded date : 2024-05-13 13:12:05 UTC Writing application : mkvmerge v50.0.0 ('Awakenings') 64-bit Writing library : libebml v1.4.0 + libmatroska v1.6.2 Video ID : 1 Format : AVC Format/Info : Advanced Video Codec Format profile : High@L4.1 Format settings : CABAC / 2 Ref Frames Format settings, CABAC : Yes Format settings, Reference fra : 2 frames Codec ID : V_MPEG4/ISO/AVC Duration : 46 min 22 s Bit rate mode : Variable Bit rate : 3 701 kb/s Maximum bit rate : 15.0 Mb/s Width : 1 920 pixels Height : 1 080 pixels Display aspect ratio : 16:9 Frame rate mode : Constant Frame rate : 29.970 (29970/1000) FPS Original frame rate : 29.970 (30000/1001) FPS Color space : YUV Chroma subsampling : 4:2:0 Bit depth : 8 bits Scan type : Progressive Bits/(Pixel*Frame) : 0.060 Stream size : 1.20 GiB (95%) Default : Yes Forced : No Audio ID : 2 Format : AAC LC Format/Info : Advanced Audio Codec Low Complexity Codec ID : A_AAC-2 Duration : 46 min 22 s Bit rate : 192 kb/s Channel(s) : 2 channels Channel layout : L R Sampling rate : 48.0 kHz Frame rate : 46.875 FPS (1024 SPF) Compression mode : Lossy Stream size : 63.7 MiB (5%) Title : 日本語 [オリジナル] Language : Japanese Default : Yes Forced : No ```

File list