[MagicStar] ACMA:GAME EP06.5 [WEBDL] [1080p]

Category:
Date:
2024-05-13 11:49 UTC
Submitter:
Seeders:
3
Information:
Leechers:
0
File size:
128.2 MiB
Completed:
801
Info hash:
e1fea029974b7a9fd4bb7279cdc948cf2d55cb84
HD 1080p from TVer. ![alt text](https://i.ibb.co/BykWQfh/66512cd4-eaef-4236-a820-260e1933375db.jpg) ![alt text](https://i.ibb.co/42ynBXY/Magic-Star-ACMA-GAME-EP06-5-WEBDL-1080p-mkv.jpg) ``` General Unique ID : 129420874223908164819034778696634553493 (0x615D8DBFEA90B4B9B53EB7A91A135495) Complete name : [MagicStar] ACMA:GAME EP06.5 [WEBDL] [1080p].mkv Format : Matroska Format version : Version 4 File size : 128 MiB Duration : 6 min 13 s Overall bit rate : 2 882 kb/s Frame rate : 29.970 FPS Encoded date : 2024-05-13 11:47:02 UTC Writing application : mkvmerge v50.0.0 ('Awakenings') 64-bit Writing library : libebml v1.4.0 + libmatroska v1.6.2 Video ID : 1 Format : AVC Format/Info : Advanced Video Codec Format profile : High@L4 Format settings : CABAC / 4 Ref Frames Format settings, CABAC : Yes Format settings, Reference fra : 4 frames Codec ID : V_MPEG4/ISO/AVC Duration : 6 min 12 s Bit rate : 2 689 kb/s Width : 1 920 pixels Height : 1 080 pixels Display aspect ratio : 16:9 Frame rate mode : Constant Frame rate : 29.970 (29970/1000) FPS Original frame rate : 29.970 (30000/1001) FPS Color space : YUV Chroma subsampling : 4:2:0 Bit depth : 8 bits Scan type : Progressive Bits/(Pixel*Frame) : 0.043 Stream size : 120 MiB (93%) Default : Yes Forced : No Color range : Limited Color primaries : BT.709 Transfer characteristics : BT.709 Matrix coefficients : BT.709 Audio ID : 2 Format : AAC LC Format/Info : Advanced Audio Codec Low Complexity Codec ID : A_AAC-2 Duration : 6 min 13 s Bit rate : 192 kb/s Channel(s) : 2 channels Channel layout : L R Sampling rate : 48.0 kHz Frame rate : 46.875 FPS (1024 SPF) Compression mode : Lossy Stream size : 8.51 MiB (7%) Title : 日本語 [オリジナル] Language : Japanese Default : Yes Forced : No ```

File list