[MagicStar] Messoumonai EP04 [WEBDL] [1080p] [Netflix] [JPN_ENG_CHT_SUB] [V0]

Category:
Date:
2024-05-13 11:20 UTC
Submitter:
Seeders:
2
Information:
Leechers:
2
File size:
448.0 MiB
Completed:
568
Info hash:
7a8ef6fddeb88ee5971b3fc7a9dcf5b4ee6dd098
HD 1080p from Netflix. Japanese, English and Chinese subtitles added. NOTE: It will still take time to fix all the NF source code issues, but don't worry, we'll get there! ************** Support Us Ali (Zhifubao / QR code): https://i.ibb.co/FWV2ggm/1660626347125.png PayPalMe: https://www.paypal.com/paypalme/sakuragikenji BTC (USDT): 19y5NF6voysif7PeJLv86Hf186ZS1i4rwu ETH: 0x807B4eec355Cfa65500BeE65A992a9a0d8432697 LTC: LUC2dTQkte7muv5oUUuRNJimLJvi9pgZUQ ************** ![alt text](https://i.ibb.co/2h1zXs6/Messoumonai.jpg) ![alt text](https://i.ibb.co/h1rCDsd/Messoumonai-EP04-1080p-NF-WEB-DL-DDP2-0-H-264-V0-Magic-Star-mkv.jpg) ``` General Unique ID : 322902054908534183201102445925124061318 (0xF2ECAC755370AEAC8DFBF8017798B886) Complete name : Messoumonai.EP04.1080p.NF.WEB-DL.DDP2.0.H.264.V0-MagicStar.mkv Format : Matroska Format version : Version 4 File size : 448 MiB Duration : 24 min 0 s Overall bit rate mode : Constant Overall bit rate : 2 608 kb/s Frame rate : 23.976 FPS Encoded date : 2024-05-07 17:23:31 UTC Writing application : mkvmerge v50.0.0 ('Awakenings') 64-bit Writing library : libebml v1.4.0 + libmatroska v1.6.2 Cover : Yes Attachments : cover.png Video ID : 1 Format : AVC Format/Info : Advanced Video Codec Format profile : High@L4 Format settings : CABAC / 1 Ref Frames Format settings, CABAC : Yes Format settings, Reference fra : 1 frame Format settings, GOP : M=1, N=24 Codec ID : V_MPEG4/ISO/AVC Duration : 24 min 0 s Bit rate mode : Constant Bit rate : 2 517 kb/s Width : 1 920 pixels Height : 1 080 pixels Display aspect ratio : 16:9 Frame rate mode : Constant Frame rate : 23.976 (24000/1001) FPS Color space : YUV Chroma subsampling : 4:2:0 Bit depth : 8 bits Scan type : Progressive Bits/(Pixel*Frame) : 0.051 Stream size : 426 MiB (95%) Default : Yes Forced : No Color range : Limited Color primaries : BT.709 Transfer characteristics : BT.709 Matrix coefficients : BT.709 Audio ID : 2 Format : E-AC-3 Format/Info : Enhanced AC-3 Commercial name : Dolby Digital Plus Codec ID : A_EAC3 Duration : 24 min 0 s Bit rate mode : Constant Bit rate : 128 kb/s Channel(s) : 2 channels Channel layout : L R Sampling rate : 48.0 kHz Frame rate : 31.250 FPS (1536 SPF) Compression mode : Lossy Stream size : 22.0 MiB (5%) Title : 日本語 [オリジナル] Language : Japanese Service kind : Complete Main Default : Yes Forced : No ```

File list

  • [MagicStar] Messoumonai EP04 [WEBDL] [1080p] [Netflix] [JPN_ENG_CHT_SUB] [V0]
    • Messoumonai.EP04.1080p.NF.WEB-DL.DDP2.0.H.264.V0-MagicStar.Cht.srt (23.6 KiB)
    • Messoumonai.EP04.1080p.NF.WEB-DL.DDP2.0.H.264.V0-MagicStar.Eng.srt (25.4 KiB)
    • Messoumonai.EP04.1080p.NF.WEB-DL.DDP2.0.H.264.V0-MagicStar.Jpn.srt (32.6 KiB)
    • Messoumonai.EP04.1080p.NF.WEB-DL.DDP2.0.H.264.V0-MagicStar.mkv (447.9 MiB)