Godzilla.Minus.One.2023.VOSTFR.Fastsub.1080p.BluRay.x264.DD+5.1.Atmos-ONLYMOVIE

Category:
Date:
2024-05-05 09:01 UTC
Submitter:
Anonymous
Seeders:
3
Information:
No information.
Leechers:
1
File size:
9.7 GiB
Completed:
774
Info hash:
1ed8a64f709f2b0eeea53c0564e00a97a65e226b
Plus d’infos : https://www.themoviedb.org/movie/940721-1-0 Lien de téléchargement : https://multiup.io/a423f9745ecb88b8bd5c6a9979b4350f ou https://1fichier.com/?s7ts4gcr61mjonmnevog&af=5010551 NFO : GREETZ TO -FW -BULiTT -and All P2p Teams presents Source : Neo-XP / Pahein Note : corrections Neo-XP thx / sub synch General Unique ID : 33238683992962478022463988166341828374 (0x190189A57D1B37E847DA7AFC3E221F16) Complete name : E:\Godzilla.Minus.One.2023.VOSTFR.1080p.BluRay.x264.DD+5.1.Atmos-ONLYMOVIE\Godzilla.Minus.One.2023.VOSTFR.1080p.BluRay.x264.DD+5.1.Atmos-ONLYMOVIE.mkv Format : Matroska Format version : Version 4 File size : 9.73 GiB Duration : 2 h 4 min Overall bit rate : 11.2 Mb/s Frame rate : 23.976 FPS Movie name : Godzilla.Minus.One.2023.VOSTFR.1080p.BluRay.x264.DD+5.1.Atmos-ONLYMOVIE Encoded date : 2024-05-04 17:07:52 UTC Writing application : mkvmerge v84.0 ('Sleeper') 64-bit Writing library : libebml v1.4.5 + libmatroska v1.7.1 Encoded by : Pahe.inT Team Video ID : 1 Format : AVC Format/Info : Advanced Video Codec Format profile : High@L4.1 Format settings : CABAC / 5 Ref Frames Format settings, CABAC : Yes Format settings, Reference frames : 5 frames Codec ID : V_MPEG4/ISO/AVC Duration : 2 h 4 min Bit rate : 10.4 Mb/s Width : 1 920 pixels Height : 804 pixels Display aspect ratio : 2.39:1 Frame rate mode : Constant Frame rate : 23.976 (24000/1001) FPS Color space : YUV Chroma subsampling : 4:2:0 Bit depth : 8 bits Scan type : Progressive Bits/(Pixel*Frame) : 0.281 Stream size : 9.06 GiB (93%) Writing library : x264 core 155 r2901 7d0ff22 Encoding settings : cabac=1 / ref=5 / deblock=1:-3:-3 / analyse=0x3:0x133 / me=umh / subme=10 / psy=1 / psy_rd=1.00:0.15 / mixed_ref=1 / me_range=48 / chroma_me=1 / trellis=2 / 8x8dct=1 / cqm=0 / deadzone=21,11 / fast_pskip=0 / chroma_qp_offset=-3 / threads=25 / lookahead_threads=4 / sliced_threads=0 / nr=0 / decimate=0 / interlaced=0 / bluray_compat=0 / constrained_intra=0 / bframes=8 / b_pyramid=2 / b_adapt=2 / b_bias=0 / direct=3 / weightb=1 / open_gop=0 / weightp=2 / keyint=250 / keyint_min=23 / scenecut=40 / intra_refresh=0 / rc_lookahead=60 / rc=crf / mbtree=0 / crf=17.0 / qcomp=0.60 / qpmin=0 / qpmax=69 / qpstep=4 / vbv_maxrate=33500 / vbv_bufsize=30000 / crf_max=0.0 / nal_hrd=none / filler=0 / ip_ratio=1.30 / pb_ratio=1.20 / aq=3:0.80 Default : Yes Forced : No Audio ID : 2 Format : E-AC-3 JOC Format/Info : Enhanced AC-3 with Joint Object Coding Commercial name : Dolby Digital Plus with Dolby Atmos Codec ID : A_EAC3 Duration : 2 h 4 min Bit rate mode : Constant Bit rate : 768 kb/s Channel(s) : 6 channels Channel layout : L R C LFE Ls Rs Sampling rate : 48.0 kHz Frame rate : 31.250 FPS (1536 SPF) Compression mode : Lossy Stream size : 685 MiB (7%) Language : Japanese Service kind : Complete Main Default : No Forced : No Complexity index : 16 Number of dynamic objects : 15 Bed channel count : 1 channel Bed channel configuration : LFE Text #1 ID : 3 Format : UTF-8 Codec ID : S_TEXT/UTF8 Codec ID/Info : UTF-8 Plain Text Duration : 1 h 58 min Bit rate : 34 b/s Frame rate : 0.157 FPS Count of elements : 1112 Stream size : 29.7 KiB (0%) Language : English Default : No Forced : No Text #2 ID : 4 Format : UTF-8 Codec ID : S_TEXT/UTF8 Codec ID/Info : UTF-8 Plain Text Duration : 1 h 58 min Bit rate : 34 b/s Frame rate : 0.157 FPS Count of elements : 1112 Stream size : 29.7 KiB (0%) Language : English Default : No Forced : No Text #3 ID : 5 Format : UTF-8 Codec ID : S_TEXT/UTF8 Codec ID/Info : UTF-8 Plain Text Duration : 1 h 58 min Bit rate : 43 b/s Frame rate : 0.149 FPS Count of elements : 1053 Stream size : 37.4 KiB (0%) Language : French Default : Yes Forced : No

File list