[MagicStar] Destiny EP04 [WEBDL] [1080p] [Netflix] [JPN_ENG_CHT_SUB] [V0]

Category:
Date:
2024-05-01 15:11 UTC
Submitter:
Seeders:
11
Information:
Leechers:
0
File size:
1.5 GiB
Completed:
1817
Info hash:
90f68432a247e1f1e4caecdd0f96072f23e4964a
HD 1080p from Netflix. Japanese, English and Chinese subtitles added. NOTE: It will still take time to fix all the NF source code issues, but don't worry, we'll get there! ************** Support Us Ali (Zhifubao / QR code): https://i.ibb.co/FWV2ggm/1660626347125.png PayPalMe: https://www.paypal.com/paypalme/sakuragikenji BTC (USDT): 19y5NF6voysif7PeJLv86Hf186ZS1i4rwu ETH: 0x807B4eec355Cfa65500BeE65A992a9a0d8432697 LTC: LUC2dTQkte7muv5oUUuRNJimLJvi9pgZUQ ************** ![alt text](https://i.ibb.co/McdpkVH/GKS4-Ng6bw-AAw9t6b.jpg) ![alt text](https://i.ibb.co/r7k6t5C/Destiny-EP04-1080p-NF-WEB-DL-DDP2-0-H-264-V0-Magic-Star-mkv.jpg) ``` General Unique ID : 124037229597257764180693522412121125601 (0x5D50B3938A08362A0085C3209B1072E1) Complete name : Destiny.EP04.1080p.NF.WEB-DL.DDP2.0.H.264.V0-MagicStar.mkv Format : Matroska Format version : Version 4 File size : 1.54 GiB Duration : 45 min 5 s Overall bit rate mode : Constant Overall bit rate : 4 904 kb/s Frame rate : 29.970 FPS Encoded date : 2024-05-01 09:20:06 UTC Writing application : mkvmerge v50.0.0 ('Awakenings') 64-bit Writing library : libebml v1.4.0 + libmatroska v1.6.2 Cover : Yes Attachments : cover.png Video ID : 1 Format : AVC Format/Info : Advanced Video Codec Format profile : High@L4 Format settings : CABAC / 1 Ref Frames Format settings, CABAC : Yes Format settings, Reference fra : 1 frame Format settings, GOP : M=1, N=24 Codec ID : V_MPEG4/ISO/AVC Duration : 45 min 5 s Bit rate mode : Constant Bit rate : 4 809 kb/s Width : 1 920 pixels Height : 1 080 pixels Display aspect ratio : 16:9 Frame rate mode : Constant Frame rate : 29.970 (29970/1000) FPS Original frame rate : 29.970 (30000/1001) FPS Color space : YUV Chroma subsampling : 4:2:0 Bit depth : 8 bits Scan type : Progressive Bits/(Pixel*Frame) : 0.077 Stream size : 1.50 GiB (97%) Default : Yes Forced : No Color range : Limited Color primaries : BT.709 Transfer characteristics : BT.709 Matrix coefficients : BT.709 Audio ID : 2 Format : E-AC-3 Format/Info : Enhanced AC-3 Commercial name : Dolby Digital Plus Codec ID : A_EAC3 Duration : 45 min 5 s Bit rate mode : Constant Bit rate : 128 kb/s Channel(s) : 2 channels Channel layout : L R Sampling rate : 48.0 kHz Frame rate : 31.250 FPS (1536 SPF) Compression mode : Lossy Stream size : 41.3 MiB (3%) Title : 日本語 [オリジナル] Language : Japanese Service kind : Complete Main Default : Yes Forced : No ```

File list

  • [MagicStar] Destiny EP04 [WEBDL] [1080p] [Netflix] [JPN_ENG_CHT_SUB] [V0]
    • Destiny.EP04.1080p.NF.WEB-DL.DDP2.0.H.264.V0-MagicStar.Cht.srt (42.1 KiB)
    • Destiny.EP04.1080p.NF.WEB-DL.DDP2.0.H.264.V0-MagicStar.Eng.srt (43.3 KiB)
    • Destiny.EP04.1080p.NF.WEB-DL.DDP2.0.H.264.V0-MagicStar.Jpn.srt (47.1 KiB)
    • Destiny.EP04.1080p.NF.WEB-DL.DDP2.0.H.264.V0-MagicStar.mkv (1.5 GiB)