Digimon.Adventure.02.Revenge.of.Diaboromon.2001.1080p.BluRay.Dual-Audio.FLAC.2.0.AC3.2.0.x264-VeloEncodes

Category:
Date:
2024-04-30 19:24 UTC
Submitter:
Seeders:
17
Information:
Leechers:
6
File size:
1.8 GiB
Completed:
632
Info hash:
00b31ed3e5f87e292edc9431897c5adf0e5eab48
![logo](https://i0.wp.com/i.ibb.co/NnVYvJY/hrtFLIT.jpg) ![bdbox](https://i0.wp.com/i.ibb.co/3kGt0qc/bluraybox.jpg) Kinda had this lying around for a while, but never got around to muxing or uploading it. This is the second *Digimon Adventure 02* movie, canonically taking place after the events of the main show, now in glorious full HD, dual-audio greatness. Also, as before, I'm cross-seeding this across TGx and here. **MediaInfo:** ``` General Unique ID : 76305177342551585811472284627295864571 (0x3967D7B4580B3AACD19E5C1E7F4506FB) Complete name : /Volumes/My Passport 1/Movies/Digimon.Adventure.02.Revenge.of.Diaboromon.2001.1080p.BluRay.Dual-Audio.FLAC.2.0.AC3.2.0.x264-VeloEncodes/Digimon.Adventure.02.Revenge.of.Diaboromon.2001.1080p.BluRay.Dual-Audio.FLAC.2.0.AC3.2.0.x264-VeloEncodes.mkv Format : Matroska Format version : Version 4 File size : 1.85 GiB Duration : 30 min 0 s Overall bit rate mode : Variable Overall bit rate : 8 825 kb/s Frame rate : 23.976 FPS Movie name : Digimon Adventure 02: Revenge of Diaboromon (2001) 1080p BluRay Dual-Audio FLAC 2.0 AC3 2.0 x264-VeloEncodes Encoded date : 2024-04-30 18:20:08 UTC Writing application : mkvmerge v71.1.0 ('Fortitude') 64-bit Writing library : libebml v1.4.4 + libmatroska v1.7.1 Attachments : Agency FB Bold.TTF / calibrib.ttf / calibriz.ttf / CHINACAT_0_PL.TTF Video ID : 1 Format : AVC Format/Info : Advanced Video Codec Format profile : High@L4.1 Format settings : CABAC / 4 Ref Frames Format settings, CABAC : Yes Format settings, Reference frames : 4 frames Codec ID : V_MPEG4/ISO/AVC Duration : 29 min 59 s Bit rate : 8 000 kb/s Width : 1 920 pixels Height : 1 056 pixels Display aspect ratio : 16:9 Frame rate mode : Constant Frame rate : 23.976 (24000/1001) FPS Color space : YUV Chroma subsampling : 4:2:0 Bit depth : 8 bits Scan type : Progressive Bits/(Pixel*Frame) : 0.165 Stream size : 1.68 GiB (91%) Title : JPBD video (encoded by EMTP-Raws) Writing library : x264 core 125 r2200 999b753 Encoding settings : cabac=1 / ref=4 / deblock=1:-1:-1 / analyse=0x3:0x113 / me=umh / subme=9 / psy=1 / psy_rd=1.00:0.00 / mixed_ref=1 / me_range=24 / chroma_me=1 / trellis=2 / 8x8dct=1 / cqm=0 / deadzone=21,11 / fast_pskip=1 / chroma_qp_offset=-2 / threads=18 / lookahead_threads=3 / sliced_threads=0 / nr=0 / decimate=1 / interlaced=0 / bluray_compat=0 / constrained_intra=0 / bframes=3 / b_pyramid=0 / b_adapt=2 / b_bias=0 / direct=3 / weightb=1 / open_gop=0 / weightp=2 / keyint=240 / keyint_min=23 / scenecut=40 / intra_refresh=0 / rc_lookahead=50 / rc=2pass / mbtree=1 / bitrate=8000 / ratetol=1.0 / qcomp=0.60 / qpmin=10 / qpmax=51 / qpstep=4 / cplxblur=20.0 / qblur=0.5 / vbv_maxrate=50000 / vbv_bufsize=50000 / nal_hrd=none / ip_ratio=1.40 / aq=1:1.00 Default : Yes Forced : No Audio #1 ID : 2 Format : FLAC Format/Info : Free Lossless Audio Codec Codec ID : A_FLAC Duration : 29 min 59 s Bit rate mode : Variable Bit rate : 621 kb/s Channel(s) : 2 channels Channel layout : L R Sampling rate : 48.0 kHz Frame rate : 11.719 FPS (4096 SPF) Bit depth : 16 bits Compression mode : Lossless Stream size : 133 MiB (7%) Title : Original Japanese audio (encoded by EMTP-Raws) Writing library : libFLAC 1.2.1 (2007-09-17) Language : Japanese Default : No Forced : No MD5 of the unencoded content : 43170A48F9394DEDEFE1E0503AE76E16 Audio #2 ID : 3 Format : AC-3 Format/Info : Audio Coding 3 Commercial name : Dolby Digital Codec ID : A_AC3 Duration : 30 min 0 s Bit rate mode : Constant Bit rate : 192 kb/s Channel(s) : 2 channels Channel layout : L R Sampling rate : 48.0 kHz Frame rate : 31.250 FPS (1536 SPF) Compression mode : Lossy Stream size : 41.2 MiB (2%) Title : Saban English dub Language : English Service kind : Complete Main Default : Yes Forced : No Text #1 ID : 4 Format : ASS Codec ID : S_TEXT/ASS Codec ID/Info : Advanced Sub Station Alpha Duration : 27 min 22 s Bit rate : 10 b/s Frame rate : 0.018 FPS Count of elements : 29 Compression mode : Lossless Stream size : 2.08 KiB (0%) Title : English signs Language : English Default : Yes Forced : No Text #2 ID : 5 Format : ASS Codec ID : S_TEXT/ASS Codec ID/Info : Advanced Sub Station Alpha Duration : 29 min 18 s Bit rate : 99 b/s Frame rate : 0.212 FPS Count of elements : 373 Compression mode : Lossless Stream size : 21.3 KiB (0%) Title : English subs Language : English Default : No Forced : No Menu 00:00:00.000 : en:Chapter 01(Opening) 00:02:29.149 : en:Chapter 02 00:05:11.978 : en:Chapter 03 00:08:08.321 : en:Chapter 04 00:11:12.838 : en:Chapter 05 00:13:39.652 : en:Chapter 06 00:16:31.365 : en:Chapter 07 00:18:22.142 : en:Chapter 08 00:21:24.282 : en:Chapter 09 00:24:17.205 : en:Chapter 10 00:26:04.980 : en:Chapter 11 00:28:16.653 : en:Chapter 12(Ending) ``` | **Stream** | **Source** | |-------------------------|-------------------------------------------| | Video | JPBD video (encoded by EMTP-Raws) | | Original Japanese audio | EMTP-Raws | | Saban English dub | Unknown release from the OG Nyaa Torrents | | English subs | PositronCannon | | English signs | PositronCannon | **Screenshots:** ![1](https://i.ibb.co/hDYsMmY/vlcsnap-2024-05-01-00h35m30s804.png) ![2](https://i.ibb.co/gTnsqX0/vlcsnap-2024-05-01-00h35m49s537.png) ![3](https://i.ibb.co/GP2YRhk/vlcsnap-2024-05-01-00h36m30s712.png) ![4](https://i.ibb.co/jR3Md9y/vlcsnap-2024-05-01-00h37m15s768.png) ![5](https://i.ibb.co/GRwT0LH/vlcsnap-2024-05-01-00h37m22s967.png) If you like what you see, and would like to donate, please do consider checking out my Patreon [here](<https://www.patreon.com/basedvelo>). *Enjoy, and don't forget to seed!*

File list

thecharioteermode (uploader)

User
@Staz if you mean the Digidudes Releases sheet, it no longer exists sadly 😔