Digimon.Tamers.Runaway.Locomon.2002.1080p.BluRay.Dual-Audio.FLAC.2.0.AAC.2.0.x264-VeloEncodes

Category:
Date:
2024-04-29 09:14 UTC
Submitter:
Seeders:
18
Information:
Leechers:
0
File size:
1.8 GiB
Completed:
542
Info hash:
06b59ecad6f8e81735828d71ad765d57cdbe7a5a
![logo](https://i.ibb.co/NnVYvJY/hrtFLIT.jpg) ![bdimg](https://i.ibb.co/3kGt0qc/bluraybox.jpg) It's me, ya boi. I'm not dead (yet) lol. Unfortunately *Tamers* (the series) is STILL indefinitely stalled. Anyway, here is the second *Digimon Tamers* movie in majestic full HD, dual-audio greatness (cross-seeding across Nyaa and TGx). **MediaInfo:** ``` General Unique ID : 219655652444499037297079288032830066169 (0xA54023CD303FAA194CE292C64AEA8DF9) Complete name : /Volumes/My Passport 1/Movies/Digimon.Tamers.Runaway.Locomon.2002.1080p.BluRay.Dual-Audio.FLAC.2.0.AAC.2.0.x264-VeloEncodes/Digimon.Tamers.Runaway.Locomon.2002.1080p.BluRay.Dual-Audio.FLAC.2.0.AAC.2.0.x264-VeloEncodes.mkv Format : Matroska Format version : Version 4 File size : 1.78 GiB Duration : 30 min 32 s Overall bit rate mode : Variable Overall bit rate : 8 348 kb/s Frame rate : 23.976 FPS Movie name : Digimon Tamers Runaway Locomon (2002) 1080p BluRay Dual-Audio FLAC 2.0 AAC 2.0 x264-VeloEncodes Encoded date : 2024-04-29 07:50:50 UTC Writing application : mkvmerge v62.0.0 ('Apollo') 64-bit Writing library : libebml v1.4.2 + libmatroska v1.6.4 Attachments : Futurbci.ttf / times.ttf / arial.ttf / arialbd.ttf / arialbi.ttf / ariali.ttf / corbelb.ttf / Futurabc.ttf Video ID : 1 Format : AVC Format/Info : Advanced Video Codec Format profile : High@L4.1 Format settings : CABAC / 4 Ref Frames Format settings, CABAC : Yes Format settings, Reference frames : 4 frames Codec ID : V_MPEG4/ISO/AVC Duration : 30 min 32 s Bit rate : 7 500 kb/s Width : 1 912 pixels Height : 1 064 pixels Display aspect ratio : 16:9 Frame rate mode : Constant Frame rate : 23.976 (24000/1001) FPS Color space : YUV Chroma subsampling : 4:2:0 Bit depth : 8 bits Scan type : Progressive Bits/(Pixel*Frame) : 0.154 Stream size : 1.60 GiB (90%) Title : JPBD video (encoded by EMTP-Raws) Writing library : x264 core 125 r2200 999b753 Encoding settings : cabac=1 / ref=4 / deblock=1:-1:-1 / analyse=0x3:0x113 / me=umh / subme=9 / psy=1 / psy_rd=1.00:0.00 / mixed_ref=1 / me_range=24 / chroma_me=1 / trellis=2 / 8x8dct=1 / cqm=0 / deadzone=21,11 / fast_pskip=1 / chroma_qp_offset=-2 / threads=18 / lookahead_threads=3 / sliced_threads=0 / nr=0 / decimate=1 / interlaced=0 / bluray_compat=0 / constrained_intra=0 / bframes=3 / b_pyramid=0 / b_adapt=2 / b_bias=0 / direct=3 / weightb=1 / open_gop=0 / weightp=2 / keyint=240 / keyint_min=23 / scenecut=40 / intra_refresh=0 / rc_lookahead=50 / rc=2pass / mbtree=1 / bitrate=7500 / ratetol=1.0 / qcomp=0.60 / qpmin=10 / qpmax=51 / qpstep=4 / cplxblur=20.0 / qblur=0.5 / vbv_maxrate=50000 / vbv_bufsize=50000 / nal_hrd=none / ip_ratio=1.40 / aq=1:1.00 Language : Japanese Default : Yes Forced : No Audio #1 ID : 2 Format : FLAC Format/Info : Free Lossless Audio Codec Codec ID : A_FLAC Duration : 30 min 32 s Bit rate mode : Variable Bit rate : 631 kb/s Channel(s) : 2 channels Channel layout : L R Sampling rate : 48.0 kHz Frame rate : 11.719 FPS (4096 SPF) Bit depth : 16 bits Compression mode : Lossless Stream size : 138 MiB (8%) Title : Original Japanese Audio (encoded by EMTP-Raws) Writing library : libFLAC 1.2.1 (2007-09-17) Language : Japanese Default : No Forced : No MD5 of the unencoded content : 29707A905799BEFCE31DA6113AF36A4B Audio #2 ID : 3 Format : AAC LC Format/Info : Advanced Audio Codec Low Complexity Codec ID : A_AAC-2 Duration : 30 min 32 s Bit rate : 192 kb/s Channel(s) : 2 channels Channel layout : L R Sampling rate : 48.0 kHz Frame rate : 46.875 FPS (1024 SPF) Compression mode : Lossy Stream size : 41.4 MiB (2%) Title : US Dub (2005 Studiopolis Inc.) Language : English Default : Yes Forced : No Text ID : 4 Format : ASS Codec ID : S_TEXT/ASS Codec ID/Info : Advanced Sub Station Alpha Duration : 30 min 5 s Bit rate : 74 b/s Frame rate : 0.209 FPS Count of elements : 378 Compression mode : Lossless Stream size : 16.5 KiB (0%) Title : English - WPP [rev.DmonHiro] Language : English Default : No Forced : No Menu 00:00:00.000 : en:Chapter 01 00:01:10.570 : en:Chapter 02(Opening) 00:02:43.454 : en:Chapter 03 00:07:42.962 : en:Chapter 04 00:09:12.343 : en:Chapter 05 00:11:10.878 : en:Chapter 06 00:13:50.746 : en:Chapter 07 00:15:15.956 : en:Chapter 08 00:19:43.056 : en:Chapter 09 00:23:12.766 : en:Chapter 10 00:26:06.856 : en:Chapter 11 00:28:46.724 : en:Chapter 12(Ending) ``` | **Stream** | **Source** | |--------------------------------|---------------------------------------------| | Video | JPBD video (encoded by EMTP-Raws) | | Original Japanese audio | EMTP-Raws | | US Dub (2005 Studiopolis Inc.) | Ghjklbnm, Jorkus and DBkai42 | | Styled subs | WolfPackProductions (WPP), DmonHiro and SID | **Screenshots:** ![1](https://i.ibb.co/yhxfhN3/vlcsnap-2024-04-29-14h34m10s118.png) ![2](https://i.ibb.co/ctLttNP/vlcsnap-2024-04-29-14h34m25s138.png) ![3](https://i.ibb.co/J2B3XfP/vlcsnap-2024-04-29-14h35m04s139.png) ![4](https://i.ibb.co/3rbvwLW/vlcsnap-2024-04-29-14h35m40s946.png) ![5](https://i.ibb.co/41qxNv8/vlcsnap-2024-04-29-14h35m24s864.png) ![6](https://i.ibb.co/9HphZHt/vlcsnap-2024-04-29-14h35m33s424.png) If you like what you see, and would like to donate, please do consider checking out my Patreon [here](<https://www.patreon.com/basedvelo>). *Enjoy, and please don't forget to seed!*

File list

Glad to see your alive. Thanks for this great release.
Welcome back! Thanks for the release.
downloaded from torrentgalaxy.to

thecharioteermode (uploader)

User
@Bleachway and @Rillant thank you so much! Glad you like it 💖 @Staz hi. I'm back. You can stop spamming my release tag on random Digimon releases now 😛 @ayylmoa yeah my guy, I'm cross-seeding across this across TGx and here. I mentioned it in the description too. Come on now 🙄
WHOA WELCOME BACK!!!

thecharioteermode (uploader)

User
@holyboredom thanks! It's great to be (at least partially) back, ngl
Oh damn, my old DOR made it into someone else's release, nice! I still have all my old files from it if anything would be helpful for your projects

thecharioteermode (uploader)

User
Would be epic, @Jorkus! Currently trying to create a dual-audio version of the Frontier movie, so if you have anything to help with that, would be great.
@thecharioteermode you can simply make another torrent that contains just the movie itself, so people wouldn't have to download unnecessary files

thecharioteermode (uploader)

User
@aro if this is about the TGx file then I don't have the time or the patience to create multiple torrents on my client. If you don't want to download the unnecessary files you are welcome to skip them in your client. That's basic torrenting 101. Besides, no Nyaa rules are being violated here, so not sure what you're on about.