[MagicStar] ANTI HERO EP02 [WEBDL] [1080p] [Netflix] [JPN_CHT_SUB] [EP01_ENG_SUB] [V0]

Category:
Date:
2024-04-29 02:49 UTC
Submitter:
Seeders:
4
Information:
Leechers:
1
File size:
2.2 GiB
Completed:
787
Info hash:
5d344b72acc8ed88bea947686c33c4852ea3f648
HD 1080p from Netflix. Japanese, English and Chinese subtitles added. Episode.1 English subtitles added. NOTE: It will still take time to fix all the NF source code issues, but don't worry, we'll get there! ************** Support Us Ali (Zhifubao / QR code): https://i.ibb.co/FWV2ggm/1660626347125.png PayPalMe: https://www.paypal.com/paypalme/sakuragikenji BTC (USDT): 19y5NF6voysif7PeJLv86Hf186ZS1i4rwu ETH: 0x807B4eec355Cfa65500BeE65A992a9a0d8432697 LTC: LUC2dTQkte7muv5oUUuRNJimLJvi9pgZUQ ************** ![alt text](https://i.ibb.co/st6k4RG/25092.jpg) ![alt text](https://i.ibb.co/5WpTyzY/ANTI-HERO-EP02-1080p-NF-WEB-DL-DDP2-0-H-264-V0-Magic-Star-mkv.jpg) ``` General Unique ID : 297324010367579771621337268748444068183 (0xDFAE857F667162F745D527008D4D6957) Complete name : ANTI.HERO.EP02.1080p.NF.WEB-DL.DDP2.0.H.264.V0-MagicStar.mkv Format : Matroska Format version : Version 4 File size : 2.17 GiB Duration : 59 min 17 s Overall bit rate mode : Constant Overall bit rate : 5 248 kb/s Frame rate : 29.970 FPS Encoded date : 2024-04-27 17:48:41 UTC Writing application : mkvmerge v50.0.0 ('Awakenings') 64-bit Writing library : libebml v1.4.0 + libmatroska v1.6.2 Cover : Yes Attachments : cover.png Video ID : 1 Format : AVC Format/Info : Advanced Video Codec Format profile : High@L4 Format settings : CABAC / 1 Ref Frames Format settings, CABAC : Yes Format settings, Reference fra : 1 frame Format settings, GOP : M=1, N=24 Codec ID : V_MPEG4/ISO/AVC Duration : 59 min 17 s Bit rate mode : Constant Bit rate : 5 154 kb/s Width : 1 920 pixels Height : 1 080 pixels Display aspect ratio : 16:9 Frame rate mode : Constant Frame rate : 29.970 (29970/1000) FPS Original frame rate : 29.970 (30000/1001) FPS Color space : YUV Chroma subsampling : 4:2:0 Bit depth : 8 bits Scan type : Progressive Bits/(Pixel*Frame) : 0.083 Stream size : 2.12 GiB (98%) Default : Yes Forced : No Color range : Limited Color primaries : BT.709 Transfer characteristics : BT.709 Matrix coefficients : BT.709 Audio ID : 2 Format : E-AC-3 Format/Info : Enhanced AC-3 Commercial name : Dolby Digital Plus Codec ID : A_EAC3 Duration : 59 min 17 s Bit rate mode : Constant Bit rate : 128 kb/s Channel(s) : 2 channels Channel layout : L R Sampling rate : 48.0 kHz Frame rate : 31.250 FPS (1536 SPF) Compression mode : Lossy Stream size : 54.3 MiB (2%) Title : 日本語 [オリジナル] Language : Japanese Service kind : Complete Main Default : Yes Forced : No ```

File list