[neoDESU] BOFURI: I Don't Want to Get Hurt, so I'll Max Out My Defense [Season 2] [BD WEB 1080p x265 HEVC OPUS AAC] [Dual Audio] Itai no wa Iya nanode Bougyoryoku ni Kyokufuri Shitai to Omoimasu

Category:
Date:
2024-04-27 14:30 UTC
Submitter:
Seeders:
27
Information:
Leechers:
2
File size:
4.6 GiB
Completed:
1353
Info hash:
80f33564a40664a8f88d8bfddc2175a3082e61e9
![](https://i.lensdump.com/i/6BKULK.png) *Come hang out in **[Discord](https://discord.gg/47Q7FdB54e)*** #### **[BOFURI: I Don't Want to Get Hurt, so I'll Max Out My Defense [Season 2]](https://myanimelist.net/anime/41514/Itai_no_wa_Iya_nanode_Bougyoryoku_ni_Kyokufuri_Shitai_to_Omoimasu_2)** --- **Notes:** . EP 1-8 are sourced from blueray (JPN Audio OPUS) . EP 9-12 are sourced from web (JPN Audio AAC) . If I ever get a hold of the last blueray volume I will remake this --- **Related Uploads:** **[Season 1](https://nyaa.si/view/1286318)** --- **Synopsis** After achieving fruitful results in New World Online's previous events, the now famous Maple Tree guild is excited to explore the new floors introduced in game. As if their guild was not already feared enough, each member is motivated to find stronger skills for themselves in order to greatly expand their options in future battles. Not forgetting the importance of networking, the guild also forges amicable relationships with other notable guilds, such as the Kingdom of the Flame Emperor and the Congregation of the Holy Swords. With their eccentric guild master Maple at the forefront, the members of Maple Tree continue to stumble upon creative ways to implement their skills, driving the game developers crazy along the way. ![](https://c.l3n.co/i/H4TFCa.png) --- **Language Options** I included two simple scripts that you can apply to these files to do the following (Windows only): 1. Make [Single Audio] Japanese: Throws out *English audio* and *Signs&Songs subtitles* tracks 2. Make [Single Audio] English: Throws out *Japanese audio* and *Dialogue subtitles* tracks To apply these put all the video files into the *Language Options* folder and run the .bat file. *Don't combine them and only use them once together with the base files.* --- **Source** 🗃️ Video and JPN Audio EP 1-8 (JPN BDMV): **[[KoushinRip]](https://nyaa.si/view/1673353)** 🗃️ Video and JPN Audio EP 9-12 (WEB): **[[Erai-raws]](https://nyaa.si/view/1651987)** 🗃️ ENG Audio (WEB): **[[Yameii]](https://nyaa.si/view/1629478)** 🗃️ Subtitles: **[[MapleTree]](https://nyaa.si/view/1707025)** *Thank you all for making this possible <3* --- **Media Info** ``` General Unique ID : 196577538310361401574315046995527499369 (0x93E374ED1503025063AC5C4343D07E69) Complete name : BOFURI - I Don't Want to Get Hurt, so I'll Max Out My Defense - S02E01.mkv Format : Matroska Format version : Version 4 File size : 430 MiB Duration : 23 min 41 s Overall bit rate : 2 537 kb/s Encoded date : UTC 2024-04-27 11:17:44 Writing application : mkvmerge v72.0.0 ('Minuano (Six-eight)') 64-bit Writing library : libebml v1.4.4 + libmatroska v1.7.1 Attachments : 123marker-Medium.ttf / AirBalloon.ttf / BaarSophia-Bold.TTF / calibri.TTF / CorporateRounded-Bold.TTF / CorporateRounded.ttf / MicrostyleBoldExtendedAtt-Bold.ttf / passingnotes-Medium.ttf / BeelzebrushBb.OTF / deadhead.otf / DfgothicpStdW5.otf / FontinSans-Bold.otf / FontinSans-BoldItalic.otf / GenkiDesuDemo.otf / arial.ttf Video ID : 1 Format : HEVC Format/Info : High Efficiency Video Coding Format profile : Main 10@L4@High Codec ID : V_MPEGH/ISO/HEVC Duration : 23 min 41 s Bit rate : 2 104 kb/s Width : 1 920 pixels Height : 1 080 pixels Display aspect ratio : 16:9 Frame rate mode : Constant Frame rate : 23.976 (24000/1001) FPS Color space : YUV Chroma subsampling : 4:2:0 Bit depth : 10 bits Bits/(Pixel*Frame) : 0.042 Stream size : 356 MiB (83%) Writing library : x265 3.5+37+12-4e46995bc:[Windows][MSVC 1931][64 bit] 10bit Default : Yes Forced : No Audio #1 ID : 2 Format : AAC LC Format/Info : Advanced Audio Codec Low Complexity Codec ID : A_AAC-2 Duration : 23 min 40 s Bit rate : 256 kb/s Channel(s) : 2 channels Channel layout : L R Sampling rate : 48.0 kHz Frame rate : 46.875 FPS (1024 SPF) Compression mode : Lossy Delay relative to video : 19 ms Stream size : 43.3 MiB (10%) Title : English Language : English Default : Yes Forced : No Audio #2 ID : 3 Format : Opus Codec ID : A_OPUS Duration : 23 min 41 s Bit rate : 126 kb/s Channel(s) : 2 channels Channel layout : L R Sampling rate : 48.0 kHz Frame rate : 50.000 FPS (960 SPF) Bit depth : 32 bits Compression mode : Lossy Stream size : 21.3 MiB (5%) Title : Japanese Language : Japanese Default : No Forced : No Text #1 ID : 4 Format : ASS Codec ID : S_TEXT/ASS Codec ID/Info : Advanced Sub Station Alpha Duration : 22 min 53 s Bit rate : 6 518 b/s Frame rate : 4.819 FPS Count of elements : 6618 Compression mode : Lossless Stream size : 1.07 MiB (0%) Title : Signs & Songs Language : English Default : No Forced : Yes Text #2 ID : 5 Format : ASS Codec ID : S_TEXT/ASS Codec ID/Info : Advanced Sub Station Alpha Duration : 23 min 38 s Bit rate : 6 422 b/s Frame rate : 4.886 FPS Count of elements : 6933 Compression mode : Lossless Stream size : 1.09 MiB (0%) Title : Dialogue Language : English Default : Yes Forced : No Menu 00:00:00.000 : en:Intro 00:00:40.980 : en:OP 00:02:10.990 : en:Main 00:22:01.970 : en:ED 00:23:31.970 : en:Forum ```

File list

  • [neoDESU] BOFURI - I Don't Want to Get Hurt, so I'll Max Out My Defense [Season 2] [BD WEB 1080p x265 HEVC OPUS AAC] [Dual Audio]
    • Language Options
      • 1. Make [Single Audio] English.bat (254 Bytes)
      • 2. Make [Single Audio] Japanese.bat (254 Bytes)
      • mkvmerge.exe (9.6 MiB)
      • readme.txt (511 Bytes)
    • BOFURI - I Don't Want to Get Hurt, so I'll Max Out My Defense - S02E01.mkv (429.8 MiB)
    • BOFURI - I Don't Want to Get Hurt, so I'll Max Out My Defense - S02E02.mkv (326.6 MiB)
    • BOFURI - I Don't Want to Get Hurt, so I'll Max Out My Defense - S02E03.mkv (368.2 MiB)
    • BOFURI - I Don't Want to Get Hurt, so I'll Max Out My Defense - S02E04.mkv (492.6 MiB)
    • BOFURI - I Don't Want to Get Hurt, so I'll Max Out My Defense - S02E05.mkv (381.5 MiB)
    • BOFURI - I Don't Want to Get Hurt, so I'll Max Out My Defense - S02E06.mkv (384.5 MiB)
    • BOFURI - I Don't Want to Get Hurt, so I'll Max Out My Defense - S02E07.mkv (440.9 MiB)
    • BOFURI - I Don't Want to Get Hurt, so I'll Max Out My Defense - S02E08.mkv (409.4 MiB)
    • BOFURI - I Don't Want to Get Hurt, so I'll Max Out My Defense - S02E09.mkv (365.5 MiB)
    • BOFURI - I Don't Want to Get Hurt, so I'll Max Out My Defense - S02E10.mkv (298.9 MiB)
    • BOFURI - I Don't Want to Get Hurt, so I'll Max Out My Defense - S02E11.mkv (401.5 MiB)
    • BOFURI - I Don't Want to Get Hurt, so I'll Max Out My Defense - S02E12.mkv (381.7 MiB)
The last 4 episodes bd encodes of s2 was done by vcb studio

neoborn (uploader)

User
**@Romanjohn** Yeah I've noticed. I was torn between using theirs as source or a web streaming source. I went with web because I normally don't use filtering and VCB is filtered. Secondly, if I used VCB I would have to encode an already encoded thing. I don't really know how they produce the files for streaming purposes. Like if that is made from the "Real Raw" thing. If that is the case there's one encode less if I take web. If that makes sense. Maybe I'm wrong about this though. Like: Real Raw from Studio -> Web -> neo (2 encodes) Real Raw from Studio -> BD-Raw -> VCB -> neo (3 encodes) If it is really like this with the web source I don't know.
I don't know exactly , I just thought vcb studio bd encodes might have looked better than crunchyroll, anyway bofuri s2 US blu ray comes out on jul 9 so zanros most probably will share it on u2
From my experience, filtered encodes are probably still better to re-encode from. As they tend to ***somewhat*** retain the fixes from the previous encoder. But it seems a lot of web encodes are coming out better than the files provided on blu-rays so /shrug. And, if this happens to turn into a shit slinging contest, just know that I do not care.