[Anime Land] Remember (2022) (BDRip 1080p HEVC EAC3) KOREAN [79D6F0E3].mkv

Category:
Date:
2024-04-26 13:53 UTC
Submitter:
Seeders:
7
Information:
No information.
Leechers:
0
File size:
6.2 GiB
Completed:
1271
Info hash:
17ca0b940d1ba73875cbd6314ef871426c49b6fc
![alt text](https://hdencode.org/wp-content/uploads/2023/11/MV5BMmM3NzkxNGEtZGY0Zi00ODA4LWI4NjktNzRiOGRmYWIwNzA2XkEyXkFqcGdeQXVyMTI0ODg5Nzg3._V1_SX500_.jpg "Logo Title Text 1") ![alt text](https://media.fotki.com/2v2eyY4YGxBcWUV.jpg "Logo Title Text 1") ```javascript General Unique ID : 268210596358425343857140179416420518423 (0xC9C77B5D54AF21387A541BF61FB50A17) Complete name : [Anime Land] Remember (2022) (BDRip 1080p HEVC EAC3) KOREAN [79D6F0E3].mkv Format : Matroska Format version : Version 4 File size : 6.24 GiB Duration : 2 h 8 min Overall bit rate : 6 964 kb/s Frame rate : 23.976 FPS Movie name : [Anime Land] Remember (2022) (BDRip 1080p HEVC EAC3) KOREAN [Encode By Omar] Encoded date : 2024-04-26 12:48:58 UTC Writing application : mkvmerge v83.0 ('Circle Of Friends') 64-bit Writing library : libebml v1.4.5 + libmatroska v1.7.1 Attachments : BAHIJ_MITRA-BOLD.TTF Video ID : 1 Format : HEVC Format/Info : High Efficiency Video Coding Format profile : Main 10@L5.1@Main Codec ID : V_MPEGH/ISO/HEVC Duration : 2 h 8 min Bit rate : 6 145 kb/s Width : 1 920 pixels Height : 804 pixels Display aspect ratio : 2.40:1 Frame rate mode : Constant Frame rate : 23.976 (24000/1001) FPS Color space : YUV Chroma subsampling : 4:2:0 Bit depth : 10 bits Bits/(Pixel*Frame) : 0.166 Stream size : 5.51 GiB (88%) Title : BDRip By Omar Writing library : x265 3.5+131-c5c0aa6fd:[DJATOM's Mod][Windows][GCC 13.1.0][64 bit] 10bit Encoding settings : cpuid=1111039 / frame-threads=5 / numa-pools=32,32 / wpp / no-pmode / no-pme / no-psnr / no-ssim / log-level=2 / input-csp=1 / input-res=1920x804 / interlace=0 / total-frames=184661 / level-idc=51 / high-tier=1 / uhd-bd=0 / ref=5 / no-allow-non-conformance / no-repeat-headers / annexb / no-aud / no-eob / no-eos / no-hrd / info / hash=0 / temporal-layers=0 / open-gop / min-keyint=23 / keyint=250 / gop-lookahead=0 / bframes=16 / b-adapt=2 / b-pyramid / bframe-bias=0 / rc-lookahead=40 / lookahead-slices=0 / scenecut=40 / no-hist-scenecut / radl=0 / no-splice / no-intra-refresh / ctu=64 / min-cu-size=8 / rect / amp / max-tu-size=32 / tu-inter-depth=3 / tu-intra-depth=3 / limit-tu=4 / rdoq-level=2 / dynamic-rd=0.00 / no-ssim-rd / signhide / no-tskip / nr-intra=0 / nr-inter=0 / no-constrained-intra / strong-intra-smoothing / max-merge=4 / limit-refs=1 / limit-modes / me=3 / subme=4 / merange=57 / temporal-mvp / no-frame-dup / no-hme / weightp / weightb / no-analyze-src-pics / deblock=-3:-3 / sao / no-sao-non-deblock / rd=6 / selective-sao=4 / no-early-skip / rskip / no-fast-intra / no-tskip-fast / no-cu-lossless / b-intra / no-splitrd-skip / rdpenalty=0 / psy-rd=2.00 / psy-rdoq=1.00 / no-rd-refine / no-lossless / cbqpoffs=0 / crqpoffs=0 / rc=abr / bitrate=6144 / qcomp=0.60 / qpstep=4 / stats-write=0 / stats-read=2 / cplxblur=20.0 / qblur=0.5 / ipratio=1.40 / pbratio=1.30 / aq-mode=2 / aq-strength=1.00 / aq-bias-strength=1.00 / cutree / zone-count=0 / no-strict-cbr / qg-size=32 / no-rc-grain / qpmax=69 / qpmin=0 / no-const-vbv / sar=0 / overscan=0 / videoformat=5 / range=0 / colorprim=2 / transfer=2 / colormatrix=2 / chromaloc=0 / display-window=0 / cll=0,0 / min-luma=0 / max-luma=1023 / log2-max-poc-lsb=8 / vui-timing-info / vui-hrd-info / slices=1 / no-opt-qp-pps / no-opt-ref-list-length-pps / no-multi-pass-opt-rps / scenecut-bias=0.05 / no-opt-cu-delta-qp / no-aq-motion / no-hdr10 / no-hdr10-opt / no-dhdr10-opt / no-idr-recovery-sei / analysis-reuse-level=0 / analysis-save-reuse-level=0 / analysis-load-reuse-level=0 / scale-factor=0 / refine-intra=0 / refine-inter=0 / refine-mv=1 / refine-ctu-distortion=0 / no-limit-sao / ctu-info=0 / no-lowpass-dct / refine-analysis-type=0 / copy-pic=1 / max-ausize-factor=1.0 / no-dynamic-refine / no-single-sei / no-hevc-aq / no-svt / no-field / qp-adaptation-range=1.00 / scenecut-aware-qp=0conformance-window-offsets / right=0 / bottom=0 / decoder-max-rate=0 / no-vbv-live-multi-pass / no-mcstf / no-sbrc Language : Korean Default : Yes Forced : No Audio ID : 2 Format : E-AC-3 Format/Info : Enhanced AC-3 Commercial name : Dolby Digital Plus Codec ID : A_EAC3 Duration : 2 h 8 min Bit rate mode : Constant Bit rate : 768 kb/s Channel(s) : 6 channels Channel layout : L R C LFE Ls Rs Sampling rate : 48.0 kHz Frame rate : 31.250 FPS (1536 SPF) Compression mode : Lossy Stream size : 705 MiB (11%) Title : EAC3 768 Kbps 5.1 By Omar Language : Korean Service kind : Complete Main Default : Yes Forced : No Text #1 ID : 3 Format : PGS Muxing mode : zlib Codec ID : S_HDMV/PGS Codec ID/Info : Picture based subtitle format used on BDs/HD-DVDs Duration : 2 h 1 min Bit rate : 22.7 kb/s Frame rate : 0.348 FPS Count of elements : 2535 Stream size : 19.7 MiB (0%) Title : KOREAN-PGS Sub (Untouched) Language : Korean Default : Yes Forced : No Text #2 ID : 4 Format : PGS Muxing mode : zlib Codec ID : S_HDMV/PGS Codec ID/Info : Picture based subtitle format used on BDs/HD-DVDs Duration : 2 h 1 min Bit rate : 24.0 kb/s Frame rate : 0.306 FPS Count of elements : 2226 Stream size : 20.9 MiB (0%) Title : Mandarin Simplified-PGS Sub (Untouched) Language : Chinese Default : Yes Forced : No Text #3 ID : 5 Format : PGS Muxing mode : zlib Codec ID : S_HDMV/PGS Codec ID/Info : Picture based subtitle format used on BDs/HD-DVDs Duration : 2 h 1 min Bit rate : 24.4 kb/s Frame rate : 0.306 FPS Count of elements : 2226 Stream size : 21.2 MiB (0%) Title : Mandarin Traditional-PGS Sub (Untouched) Language : Chinese Default : Yes Forced : No Text #4 ID : 6 Format : PGS Muxing mode : zlib Codec ID : S_HDMV/PGS Codec ID/Info : Picture based subtitle format used on BDs/HD-DVDs Duration : 2 h 3 min Bit rate : 27.8 kb/s Frame rate : 0.344 FPS Count of elements : 2545 Stream size : 24.5 MiB (0%) Title : ENGLISH-PGS Sub (Untouched) Language : English Default : Yes Forced : No Text #5 ID : 7 Format : ASS Codec ID : S_TEXT/ASS Codec ID/Info : Advanced Sub Station Alpha Duration : 2 h 1 min Bit rate : 79 b/s Frame rate : 0.181 FPS Count of elements : 1318 Compression mode : Lossless Stream size : 70.5 KiB (0%) Title : JAPANESE-ASS Sub (Official) Language : Japanese Default : Yes Forced : No Text #6 ID : 8 Format : ASS Codec ID : S_TEXT/ASS Codec ID/Info : Advanced Sub Station Alpha Duration : 2 h 8 min Bit rate : 95 b/s Frame rate : 0.179 FPS Count of elements : 1379 Compression mode : Lossless Stream size : 90.0 KiB (0%) Title : ARABIC-ASS Sub (AsiaWorldTeam) Language : Arabic Default : Yes Forced : No Menu 00:00:00.000 : ko:Chapter 01 00:10:18.701 : ko:Chapter 02 00:21:18.694 : ko:Chapter 03 00:30:56.438 : ko:Chapter 04 00:39:20.775 : ko:Chapter 05 00:50:20.684 : ko:Chapter 06 00:59:15.469 : ko:Chapter 07 01:11:57.813 : ko:Chapter 08 01:21:35.808 : ko:Chapter 09 01:31:44.082 : ko:Chapter 10 01:42:31.228 : ko:Chapter 11 01:55:05.065 : ko:Chapter 12 ```

File list

  • [Anime Land] Remember (2022) (BDRip 1080p HEVC EAC3) KOREAN [79D6F0E3].mkv (6.2 GiB)