Laid-Back.Camp.S02.1080p.BluRay.10-Bit.Dual-Audio.AAC.FLAC2.0.x265-YURASUKA (Yuru Camp)

Category:
Date:
2024-04-20 06:58 UTC
Submitter:
Seeders:
51
Information:
Leechers:
0
File size:
11.8 GiB
Completed:
614
Info hash:
f58a120f3706449c79301b900acfff150230b271
Laid-Back Camp / Yuru Camp Season 2 (2021) There is no US Blu-ray release so the only English audio available is AAC from Crunchyroll. Signs & Songs track edited by me from the CsS release. I have included the official Signs track from Yameii in case I missed anything. A/V Source: dennis1011@U2 (JPBD) English Audio + Official Signs: [Yameii@Nyaa](https://nyaa.si/view/1806065) (CR) Full Subtitles: [CsS@Nyaa](https://nyaa.si/view/1593794) [Kaliedo 1-4, CsS 5-13] [Encode Comparison](https://slow.pics/c/IAkwh4Qm) ``` Complete name : Laid-Back.Camp.S02E08.1080p.BluRay.10-Bit.Dual-Audio.AAC.FLAC2.0.x265-YURASUKA.mkv Format : Matroska Format version : Version 4 File size : 955 MiB Duration : 23 min 42 s Overall bit rate mode : Variable Overall bit rate : 5 633 kb/s Frame rate : 23.976 FPS Movie name : Laid-Back Camp - S02E08 - YURASUKA Encoded date : 2024-04-19 23:14:20 UTC Writing application : mkvmerge v83.0 ('Circle Of Friends') 64-bit Writing library : libebml v1.4.5 + libmatroska v1.7.1 Attachments : [...] Video ID : 1 Format : HEVC Format/Info : High Efficiency Video Coding Format profile : Main 10@L5@High Codec ID : V_MPEGH/ISO/HEVC Duration : 23 min 42 s Bit rate : 4 298 kb/s Width : 1 920 pixels Height : 1 080 pixels Display aspect ratio : 16:9 Frame rate mode : Constant Frame rate : 23.976 (24000/1001) FPS Color space : YUV Chroma subsampling : 4:2:0 Bit depth : 10 bits Bits/(Pixel*Frame) : 0.086 Stream size : 729 MiB (76%) Title : YURASUKA 1080p x265 Writing library : x265 3.5:[Linux][GCC 11.2.0][64 bit] 10bit Encoding settings : cpuid=1176575 / frame-threads=5 / numa-pools=32 / wpp / no-pmode / no-pme / no-psnr / no-ssim / log-level=2 / input-csp=1 / input-res=1920x1080 / interlace=0 / total-frames=0 / level-idc=0 / high-tier=1 / uhd-bd=0 / ref=6 / no-allow-non-conformance / no-repeat-headers / annexb / no-aud / no-hrd / info / hash=0 / no-temporal-layers / open-gop / min-keyint=1 / keyint=360 / gop-lookahead=0 / bframes=12 / b-adapt=2 / b-pyramid / bframe-bias=0 / rc-lookahead=72 / lookahead-slices=4 / scenecut=40 / hist-scenecut=0 / radl=0 / no-splice / no-intra-refresh / ctu=32 / min-cu-size=8 / rect / amp / max-tu-size=32 / tu-inter-depth=3 / tu-intra-depth=3 / limit-tu=4 / rdoq-level=2 / dynamic-rd=0.00 / no-ssim-rd / signhide / tskip / nr-intra=0 / nr-inter=0 / no-constrained-intra / strong-intra-smoothing / max-merge=5 / limit-refs=3 / limit-modes / me=3 / subme=7 / merange=57 / temporal-mvp / no-frame-dup / no-hme / weightp / weightb / analyze-src-pics / deblock=0:0 / no-sao / no-sao-non-deblock / rd=6 / selective-sao=0 / no-early-skip / rskip / no-fast-intra / no-tskip-fast / no-cu-lossless / b-intra / no-splitrd-skip / rdpenalty=0 / psy-rd=2.00 / psy-rdoq=2.00 / no-rd-refine / no-lossless / cbqpoffs=-2 / crqpoffs=-2 / rc=crf / crf=16.0 / qcomp=0.72 / qpstep=4 / stats-write=0 / stats-read=0 / vbv-maxrate=15000 / vbv-bufsize=30000 / vbv-init=0.9 / min-vbv-fullness=50.0 / max-vbv-fullness=80.0 / crf-max=0.0 / crf-min=0.0 / ipratio=1.40 / pbratio=1.30 / aq-mode=3 / aq-strength=0.85 / cutree / zone-count=0 / no-strict-cbr / qg-size=32 / no-rc-grain / qpmax=69 / qpmin=0 / no-const-vbv / sar=1 / overscan=0 / videoformat=5 / range=0 / colorprim=1 / transfer=1 / colormatrix=1 / chromaloc=0 / display-window=0 / cll=0,0 / min-luma=0 / max-luma=1023 / log2-max-poc-lsb=8 / vui-timing-info / vui-hrd-info / slices=1 / no-opt-qp-pps / no-opt-ref-list-length-pps / no-multi-pass-opt-rps / scenecut-bias=0.05 / hist-threshold=0.03 / no-opt-cu-delta-qp / no-aq-motion / no-hdr10 / no-hdr10-opt / no-dhdr10-opt / no-idr-recovery-sei / analysis-reuse-level=0 / analysis-save-reuse-level=0 / analysis-load-reuse-level=0 / scale-factor=0 / refine-intra=0 / refine-inter=0 / refine-mv=1 / refine-ctu-distortion=0 / no-limit-sao / ctu-info=0 / no-lowpass-dct / refine-analysis-type=0 / copy-pic=1 / max-ausize-factor=1.0 / no-dynamic-refine / no-single-sei / no-hevc-aq / no-svt / no-field / qp-adaptation-range=1.00 / scenecut-aware-qp=0conformance-window-offsets / right=0 / bottom=0 / decoder-max-rate=0 / no-vbv-live-multi-pass Language : Japanese Default : Yes Forced : No Color range : Limited Color primaries : BT.709 Transfer characteristics : BT.709 Matrix coefficients : BT.709 Audio #1 ID : 2 Format : AAC LC Format/Info : Advanced Audio Codec Low Complexity Codec ID : A_AAC-2 Duration : 23 min 40 s Bit rate : 128 kb/s Channel(s) : 2 channels Channel layout : L R Sampling rate : 44.1 kHz Frame rate : 43.066 FPS (1024 SPF) Compression mode : Lossy Delay relative to video : 958 ms Stream size : 21.7 MiB (2%) Title : English AAC 2.0 Language : English Default : Yes Forced : No Audio #2 ID : 3 Format : FLAC Format/Info : Free Lossless Audio Codec Codec ID : A_FLAC Duration : 23 min 42 s Bit rate mode : Variable Bit rate : 701 kb/s Channel(s) : 2 channels Channel layout : L R Sampling rate : 48.0 kHz Frame rate : 10.417 FPS (4608 SPF) Bit depth : 16 bits Compression mode : Lossless Stream size : 119 MiB (12%) Title : Japanese FLAC 2.0 Writing library : Lavf60.16.100 Language : Japanese Default : Yes Forced : No MD5 of the unencoded content : 6AA6621AD5AFB8D414423D213DC4266D Text #1 Format : ASS Title : Signs & Songs [YURASUBA] Language : English Default : Yes Forced : Yes Text #2 Format : ASS Title : Signs (CR) Language : English Default : No Forced : Yes Text #3 Format : ASS Title : Full Subtitles [CsS] Language : English Default : No Forced : No Menu 00:00:00.000 : en:Chapter 21 00:01:24.999 : en:Chapter 22 00:02:55.047 : en:Chapter 23 00:11:12.044 : en:Chapter 24 00:21:07.013 : en:Chapter 25 00:22:37.062 : en:Chapter 26 00:23:25.151 : en:Chapter 27 ``` Dead end for a sucker that’s a sucker like me. 私のようなカモの行き止まりです。

File list

  • Laid-Back.Camp.S02.1080p.BluRay.10-Bit.Dual-Audio.AAC.FLAC2.0.x265-YURASUKA
    • Laid-Back.Camp.S02E01.1080p.BluRay.10-Bit.Dual-Audio.AAC.FLAC2.0.x265-YURASUKA.mkv (829.6 MiB)
    • Laid-Back.Camp.S02E02.1080p.BluRay.10-Bit.Dual-Audio.AAC.FLAC2.0.x265-YURASUKA.mkv (970.2 MiB)
    • Laid-Back.Camp.S02E03.1080p.BluRay.10-Bit.Dual-Audio.AAC.FLAC2.0.x265-YURASUKA.mkv (794.2 MiB)
    • Laid-Back.Camp.S02E04.1080p.BluRay.10-Bit.Dual-Audio.AAC.FLAC2.0.x265-YURASUKA.mkv (853.8 MiB)
    • Laid-Back.Camp.S02E05.1080p.BluRay.10-Bit.Dual-Audio.AAC.FLAC2.0.x265-YURASUKA.mkv (990.9 MiB)
    • Laid-Back.Camp.S02E06.1080p.BluRay.10-Bit.Dual-Audio.AAC.FLAC2.0.x265-YURASUKA.mkv (839.7 MiB)
    • Laid-Back.Camp.S02E07.1080p.BluRay.10-Bit.Dual-Audio.AAC.FLAC2.0.x265-YURASUKA.mkv (956.6 MiB)
    • Laid-Back.Camp.S02E08.1080p.BluRay.10-Bit.Dual-Audio.AAC.FLAC2.0.x265-YURASUKA.mkv (955.1 MiB)
    • Laid-Back.Camp.S02E09.1080p.BluRay.10-Bit.Dual-Audio.AAC.FLAC2.0.x265-YURASUKA.mkv (886.7 MiB)
    • Laid-Back.Camp.S02E10.1080p.BluRay.10-Bit.Dual-Audio.AAC.FLAC2.0.x265-YURASUKA.mkv (1.1 GiB)
    • Laid-Back.Camp.S02E11.1080p.BluRay.10-Bit.Dual-Audio.AAC.FLAC2.0.x265-YURASUKA.mkv (924.4 MiB)
    • Laid-Back.Camp.S02E12.1080p.BluRay.10-Bit.Dual-Audio.AAC.FLAC2.0.x265-YURASUKA.mkv (1011.6 MiB)
    • Laid-Back.Camp.S02E13.1080p.BluRay.10-Bit.Dual-Audio.AAC.FLAC2.0.x265-YURASUKA.mkv (1011.1 MiB)