[MagicStar] Kawareta Otoko EP02 [WEBDL] [1080p] [DMM-TV] [V0]

Category:
Date:
2024-04-18 09:11 UTC
Submitter:
Seeders:
6
File size:
1.3 GiB
Completed:
592
Info hash:
52dd859c55183414a1ea25e4fb31da0c4a46a42d
HD 1080p from DMM TV. ************** We are planning to upload all DMM TV Dramas and Movies, we need your Support! ************** Support Us Ali (Zhifubao / QR code): https://i.ibb.co/FWV2ggm/1660626347125.png PayPalMe: https://www.paypal.com/paypalme/sakuragikenji BTC (USDT): 19y5NF6voysif7PeJLv86Hf186ZS1i4rwu ETH: 0x807B4eec355Cfa65500BeE65A992a9a0d8432697 LTC: LUC2dTQkte7muv5oUUuRNJimLJvi9pgZUQ ************** ![alt text](https://i.ibb.co/TPRWGVp/Kawareta-otoko-1.jpg) ![alt text](https://i.ibb.co/7txrj5q/Kawareta-Otoko-EP02-1080p-DMM-TV-WEB-DL-AAC2-0-H-264-V0-Magic-Star-mkv.jpg) ``` General Unique ID : 114791730802145133131940352825052495918 (0x565C154AC26CAA86A2B0F40C5716002E) Complete name : Kawareta.Otoko.EP02.1080p.DMM-TV.WEB-DL.AAC2.0.H.264.V0-MagicStar.mkv Format : Matroska Format version : Version 4 File size : 1.27 GiB Duration : 23 min 25 s Overall bit rate : 7 748 kb/s Frame rate : 23.976 FPS Encoded date : 2024-04-18 09:06:08 UTC Writing application : mkvmerge v50.0.0 ('Awakenings') 64-bit Writing library : libebml v1.4.0 + libmatroska v1.6.2 Cover : Yes Attachments : cover.png Video ID : 1 Format : AVC Format/Info : Advanced Video Codec Format profile : High@L4 Format settings : CABAC / 1 Ref Frames Format settings, CABAC : Yes Format settings, Reference fra : 1 frame Format settings, GOP : M=1, N=24 Codec ID : V_MPEG4/ISO/AVC Duration : 23 min 25 s Bit rate mode : Constant Bit rate : 7 486 kb/s Width : 1 920 pixels Height : 1 080 pixels Display aspect ratio : 16:9 Frame rate mode : Constant Frame rate : 23.976 (24000/1001) FPS Color space : YUV Chroma subsampling : 4:2:0 Bit depth : 8 bits Scan type : Progressive Bits/(Pixel*Frame) : 0.151 Stream size : 1.22 GiB (97%) Default : Yes Forced : No Color range : Limited Color primaries : BT.709 Transfer characteristics : BT.709 Matrix coefficients : BT.709 Audio ID : 2 Format : AAC LC Format/Info : Advanced Audio Codec Low Complexity Codec ID : A_AAC-2 Duration : 23 min 25 s Bit rate : 256 kb/s Channel(s) : 2 channels Channel layout : L R Sampling rate : 48.0 kHz Frame rate : 46.875 FPS (1024 SPF) Compression mode : Lossy Stream size : 42.9 MiB (3%) Title : 日本語 [オリジナル] Language : Japanese Default : Yes Forced : No ```

File list