[MagicStar] Tokusou 9 Season7 EP03 [WEBDL] [1080p] [JPN_SUB]

Category:
Date:
2024-04-18 09:01 UTC
Submitter:
Seeders:
4
Information:
Leechers:
0
File size:
923.9 MiB
Completed:
577
Info hash:
eae6bf18f0628e9450727ada27d951aa7ace9f59
HD 1080p from TVer. Japanese subtitles added. ![alt text](https://i.ibb.co/n32g1Ft/d5a5cd3b-73d0-4fbd-b32e-62ebdc286d10.jpg) ![alt text](https://i.ibb.co/zXyLnsX/Magic-Star-Tokusou-9-Season7-EP03-WEBDL-1080p-mkv.jpg) ``` General Unique ID : 41437041011619041975934711838169284164 (0x1F2C7BDAE9E7F7FC82036FBA99EABE44) Complete name : [MagicStar] Tokusou 9 Season7 EP03 [WEBDL] [1080p].mkv Format : Matroska Format version : Version 4 File size : 924 MiB Duration : 44 min 58 s Overall bit rate : 2 872 kb/s Frame rate : 29.970 FPS Encoded date : 2024-04-18 08:41:08 UTC Writing application : mkvmerge v50.0.0 ('Awakenings') 64-bit Writing library : libebml v1.4.0 + libmatroska v1.6.2 Video ID : 1 Format : AVC Format/Info : Advanced Video Codec Format profile : High@L4 Format settings : CABAC / 4 Ref Frames Format settings, CABAC : Yes Format settings, Reference fra : 4 frames Codec ID : V_MPEG4/ISO/AVC Duration : 44 min 57 s Bit rate : 2 678 kb/s Width : 1 920 pixels Height : 1 080 pixels Display aspect ratio : 16:9 Frame rate mode : Constant Frame rate : 29.970 (29970/1000) FPS Original frame rate : 29.970 (30000/1001) FPS Color space : YUV Chroma subsampling : 4:2:0 Bit depth : 8 bits Scan type : Progressive Bits/(Pixel*Frame) : 0.043 Stream size : 861 MiB (93%) Default : Yes Forced : No Color range : Limited Matrix coefficients : BT.709 Audio ID : 2 Format : AAC LC Format/Info : Advanced Audio Codec Low Complexity Codec ID : A_AAC-2 Duration : 44 min 58 s Bit rate : 192 kb/s Channel(s) : 2 channels Channel layout : L R Sampling rate : 48.0 kHz Frame rate : 46.875 FPS (1024 SPF) Compression mode : Lossy Stream size : 61.7 MiB (7%) Title : 日本語 [オリジナル] Language : Japanese Default : Yes Forced : No ```

File list