[MagicStar] RoOT EP03 [WEBDL] [1080p] [AMZN] [JPN_ENG_CHS_CHT_SUB]

Category:
Date:
2024-04-18 09:01 UTC
Submitter:
Seeders:
10
Information:
Leechers:
0
File size:
1.5 GiB
Completed:
585
Info hash:
bb0274e8397e82a1cdc198deafcb742ace1e14b0
HD 1080p from Prime Video. Use CBR bitrate mode. Japanese, English and Chinese subtitles added. ************** We are planning to upload all Prime Video Japan Dramas and Movies, we need your Support! ************** Support Us Ali (Zhifubao / QR code): https://i.ibb.co/FWV2ggm/1660626347125.png PayPalMe: https://www.paypal.com/paypalme/sakuragikenji BTC (USDT): 19y5NF6voysif7PeJLv86Hf186ZS1i4rwu ETH: 0x807B4eec355Cfa65500BeE65A992a9a0d8432697 LTC: LUC2dTQkte7muv5oUUuRNJimLJvi9pgZUQ ************** ![alt text](https://i.ibb.co/wdPKy2w/GJr-T1-LTbc-AAEbwj.jpg) ![alt text](https://i.ibb.co/S0Vt472/Ro-OT-EP03-1080p-AMZN-WEB-DL-DDP2-0-H-264-Magic-Star-mkv.jpg) ``` General Unique ID : 256669939346105934993447732944662820552 (0xC118D50B21245DEC8C195CA79081F6C8) Complete name : RoOT.EP03.1080p.AMZN.WEB-DL.DDP2.0.H.264-MagicStar.mkv Format : Matroska Format version : Version 4 File size : 1.45 GiB Duration : 23 min 16 s Overall bit rate mode : Constant Overall bit rate : 8 935 kb/s Frame rate : 23.976 FPS Encoded date : 2024-04-18 08:05:58 UTC Writing application : mkvmerge v50.0.0 ('Awakenings') 64-bit Writing library : libebml v1.4.0 + libmatroska v1.6.2 Cover : Yes Attachments : cover.jpg Video ID : 1 Format : AVC Format/Info : Advanced Video Codec Format profile : High@L4 Format settings : CABAC / 4 Ref Frames Format settings, CABAC : Yes Format settings, Reference fra : 4 frames Codec ID : V_MPEG4/ISO/AVC Duration : 23 min 16 s Bit rate mode : Constant Bit rate : 8 706 kb/s Nominal bit rate : 10 000 kb/s Width : 1 920 pixels Height : 816 pixels Display aspect ratio : 2.35:1 Frame rate mode : Constant Frame rate : 23.976 (24000/1001) FPS Color space : YUV Chroma subsampling : 4:2:0 Bit depth : 8 bits Scan type : Progressive Bits/(Pixel*Frame) : 0.232 Stream size : 1.42 GiB (97%) Default : Yes Forced : No Color range : Limited Color primaries : BT.709 Transfer characteristics : BT.709 Matrix coefficients : BT.709 Audio ID : 2 Format : E-AC-3 Format/Info : Enhanced AC-3 Commercial name : Dolby Digital Plus Codec ID : A_EAC3 Duration : 23 min 16 s Bit rate mode : Constant Bit rate : 224 kb/s Channel(s) : 2 channels Channel layout : L R Sampling rate : 48.0 kHz Frame rate : 31.250 FPS (1536 SPF) Compression mode : Lossy Stream size : 37.3 MiB (3%) Title : 日本語 [オリジナル] Language : Japanese Service kind : Complete Main Default : Yes Forced : No ```

File list

  • [MagicStar] RoOT EP03 [WEBDL] [1080p] [AMZN] [JPN_ENG_CHS_CHT_SUB]
    • RoOT.EP03.1080p.AMZN.WEB-DL.DDP2.0.H.264-MagicStar.Chs.srt (27.2 KiB)
    • RoOT.EP03.1080p.AMZN.WEB-DL.DDP2.0.H.264-MagicStar.Cht.srt (27.2 KiB)
    • RoOT.EP03.1080p.AMZN.WEB-DL.DDP2.0.H.264-MagicStar.Eng.srt (27.7 KiB)
    • RoOT.EP03.1080p.AMZN.WEB-DL.DDP2.0.H.264-MagicStar.Jpn.srt (38.9 KiB)
    • RoOT.EP03.1080p.AMZN.WEB-DL.DDP2.0.H.264-MagicStar.mkv (1.5 GiB)