[MagicStar] Kanzou wo Ubawareta Tsuma - Spin-off - EP02 [WEBDL] [1080p]

Category:
Date:
2024-04-18 09:00 UTC
Submitter:
Seeders:
6
Information:
Leechers:
0
File size:
148.0 MiB
Completed:
558
Info hash:
379b993cfc573a4c7eb920a006030a8cd584be5b
HD 1080p from TVer. ![alt text](https://i.ibb.co/WncQQLk/40e2ac60-3577-4913-847b-5dd15ea99d96b.jpg) ![alt text](https://i.ibb.co/SVbH5LQ/Magic-Star-Kanzou-wo-Ubawareta-Tsuma-Spin-off-EP02-WEBDL-1080p-mkv.jpg) ``` General Unique ID : 253804184708151011217129046270461889856 (0xBEF0E86E5D32220B8D9673E1421C4D40) Complete name : [MagicStar] Kanzou wo Ubawareta Tsuma - Spin-off - EP02 [WEBDL] [1080p].mkv Format : Matroska Format version : Version 4 File size : 148 MiB Duration : 10 min 14 s Overall bit rate : 2 021 kb/s Frame rate : 29.970 FPS Encoded date : 2024-04-17 00:00:27 UTC Writing application : mkvmerge v50.0.0 ('Awakenings') 64-bit Writing library : libebml v1.4.0 + libmatroska v1.6.2 Video ID : 1 Format : AVC Format/Info : Advanced Video Codec Format profile : High@L4 Format settings : CABAC / 4 Ref Frames Format settings, CABAC : Yes Format settings, Reference fra : 4 frames Codec ID : V_MPEG4/ISO/AVC Duration : 10 min 14 s Bit rate : 1 826 kb/s Width : 1 920 pixels Height : 1 080 pixels Display aspect ratio : 16:9 Frame rate mode : Constant Frame rate : 29.970 (29970/1000) FPS Original frame rate : 29.970 (30000/1001) FPS Color space : YUV Chroma subsampling : 4:2:0 Bit depth : 8 bits Scan type : Progressive Bits/(Pixel*Frame) : 0.029 Stream size : 134 MiB (90%) Default : Yes Forced : No Color range : Limited Color primaries : BT.709 Transfer characteristics : BT.709 Matrix coefficients : BT.709 Audio ID : 2 Format : AAC LC Format/Info : Advanced Audio Codec Low Complexity Codec ID : A_AAC-2 Duration : 10 min 14 s Bit rate : 192 kb/s Channel(s) : 2 channels Channel layout : L R Sampling rate : 48.0 kHz Frame rate : 46.875 FPS (1024 SPF) Compression mode : Lossy Stream size : 14.1 MiB (10%) Title : 日本語 [オリジナル] Language : Japanese Default : Yes Forced : No ```

File list