[MagicStar] Kanzou wo Ubawareta Tsuma - Spin-off - EP01 [WEBDL] [1080p]

Category:
Date:
2024-04-18 09:00 UTC
Submitter:
Seeders:
4
Information:
Leechers:
0
File size:
226.6 MiB
Completed:
584
Info hash:
0098db22fab702ef444e87f705a5646eb8f03f9b
HD 1080p from TVer. ![alt text](https://i.ibb.co/WncQQLk/40e2ac60-3577-4913-847b-5dd15ea99d96b.jpg) ![alt text](https://i.ibb.co/Q640jFG/Magic-Star-Kanzou-wo-Ubawareta-Tsuma-Spin-off-EP01-WEBDL-1080p-mkv.jpg) ``` General Unique ID : 27625587308134341836409046296624087398 (0x14C87E9CFA7FB636D9667494DAA7C166) Complete name : [MagicStar] Kanzou wo Ubawareta Tsuma - Spin-off - EP01 [WEBDL] [1080p].mkv Format : Matroska Format version : Version 4 File size : 227 MiB Duration : 17 min 36 s Overall bit rate : 1 800 kb/s Frame rate : 29.970 FPS Encoded date : 2024-04-17 00:00:44 UTC Writing application : mkvmerge v50.0.0 ('Awakenings') 64-bit Writing library : libebml v1.4.0 + libmatroska v1.6.2 Video ID : 1 Format : AVC Format/Info : Advanced Video Codec Format profile : High@L4 Format settings : CABAC / 4 Ref Frames Format settings, CABAC : Yes Format settings, Reference fra : 4 frames Codec ID : V_MPEG4/ISO/AVC Duration : 17 min 35 s Bit rate : 1 606 kb/s Width : 1 920 pixels Height : 1 080 pixels Display aspect ratio : 16:9 Frame rate mode : Constant Frame rate : 29.970 (29970/1000) FPS Original frame rate : 29.970 (30000/1001) FPS Color space : YUV Chroma subsampling : 4:2:0 Bit depth : 8 bits Scan type : Progressive Bits/(Pixel*Frame) : 0.026 Stream size : 202 MiB (89%) Default : Yes Forced : No Color range : Limited Color primaries : BT.709 Transfer characteristics : BT.709 Matrix coefficients : BT.709 Audio ID : 2 Format : AAC LC Format/Info : Advanced Audio Codec Low Complexity Codec ID : A_AAC-2 Duration : 17 min 36 s Bit rate : 192 kb/s Channel(s) : 2 channels Channel layout : L R Sampling rate : 48.0 kHz Frame rate : 46.875 FPS (1024 SPF) Compression mode : Lossy Stream size : 24.2 MiB (11%) Title : 日本語 [オリジナル] Language : Japanese Default : Yes Forced : No

File list