[MagicStar] Destiny EP01.5 [WEBDL] [1080p]

Category:
Date:
2024-04-18 09:00 UTC
Submitter:
Seeders:
7
Information:
Leechers:
0
File size:
192.0 MiB
Completed:
1034
Info hash:
786a463b3bfc23219861e54cc0d600108f8faed5
HD 1080p from TVer. ![alt text](https://i.ibb.co/McdpkVH/GKS4-Ng6bw-AAw9t6b.jpg) ![alt text](https://i.ibb.co/9HLMK5J/Magic-Star-Destiny-EP01-5-WEBDL-1080p-mkv.jpg) ``` General Unique ID : 265744661511982086934653897874333472736 (0xC7EC8F63CED2571BE046AC26659F97E0) Complete name : [MagicStar] Destiny EP01.5 [WEBDL] [1080p].mkv Format : Matroska Format version : Version 4 File size : 192 MiB Duration : 9 min 23 s Overall bit rate : 2 861 kb/s Frame rate : 29.970 FPS Encoded date : 2024-04-16 23:59:11 UTC Writing application : mkvmerge v50.0.0 ('Awakenings') 64-bit Writing library : libebml v1.4.0 + libmatroska v1.6.2 Video ID : 1 Format : AVC Format/Info : Advanced Video Codec Format profile : High@L4 Format settings : CABAC / 4 Ref Frames Format settings, CABAC : Yes Format settings, Reference fra : 4 frames Codec ID : V_MPEG4/ISO/AVC Duration : 9 min 22 s Bit rate : 2 667 kb/s Width : 1 920 pixels Height : 1 080 pixels Display aspect ratio : 16:9 Frame rate mode : Constant Frame rate : 29.970 (29970/1000) FPS Original frame rate : 29.970 (30000/1001) FPS Color space : YUV Chroma subsampling : 4:2:0 Bit depth : 8 bits Scan type : Progressive Bits/(Pixel*Frame) : 0.043 Stream size : 179 MiB (93%) Default : Yes Forced : No Color range : Limited Matrix coefficients : BT.709 Audio ID : 2 Format : AAC LC Format/Info : Advanced Audio Codec Low Complexity Codec ID : A_AAC-2 Duration : 9 min 23 s Bit rate : 192 kb/s Channel(s) : 2 channels Channel layout : L R Sampling rate : 48.0 kHz Frame rate : 46.875 FPS (1024 SPF) Compression mode : Lossy Stream size : 12.8 MiB (7%) Title : 日本語 [オリジナル] Language : Japanese Default : Yes Forced : No ```

File list