[MagicStar] 366 Days EP02 [WEBDL] [1080p] [AMZN] [JPN_SUB]

Category:
Date:
2024-04-18 08:59 UTC
Submitter:
Seeders:
8
Information:
Leechers:
0
File size:
1.5 GiB
Completed:
524
Info hash:
f5b2a275e5bf62aaed380a5357e9ad546f0df3a6
HD 1080p from Prime Video. Use CBR bitrate mode. Japanese subtitles added. Audio description added. ************** We are planning to upload all Prime Video Japan Dramas and Movies, we need your Support! ************** Support Us Ali (Zhifubao / QR code): https://i.ibb.co/FWV2ggm/1660626347125.png PayPalMe: https://www.paypal.com/paypalme/sakuragikenji BTC (USDT): 19y5NF6voysif7PeJLv86Hf186ZS1i4rwu ETH: 0x807B4eec355Cfa65500BeE65A992a9a0d8432697 LTC: LUC2dTQkte7muv5oUUuRNJimLJvi9pgZUQ ************** ![alt text](https://i.ibb.co/Z6NCKQt/dedb5cb2549b1292a6f809ba4d2a1c0bc198766b2969feaaa34f24f0730ed2e4.jpg) ![alt text](https://i.ibb.co/6HVhytp/366-Days-EP02-1080p-AMZN-WEB-DL-DDP2-0-H-264-Magic-Star-mkv.jpg) ``` General Unique ID : 257007323685767622201319502689842817791 (0xC159CF602DCF8522FD1E3DA52A20EAFF) Complete name : 366.Days.EP02.1080p.AMZN.WEB-DL.DDP2.0.H.264-MagicStar.mkv Format : Matroska Format version : Version 4 File size : 1.54 GiB Duration : 46 min 23 s Overall bit rate mode : Constant Overall bit rate : 4 749 kb/s Frame rate : 29.970 FPS Encoded date : 2024-04-16 23:44:03 UTC Writing application : mkvmerge v50.0.0 ('Awakenings') 64-bit Writing library : libebml v1.4.0 + libmatroska v1.6.2 Cover : Yes Attachments : cover.jpg Video ID : 1 Format : AVC Format/Info : Advanced Video Codec Format profile : High@L4 Format settings : CABAC / 4 Ref Frames Format settings, CABAC : Yes Format settings, Reference fra : 4 frames Codec ID : V_MPEG4/ISO/AVC Duration : 46 min 22 s Bit rate mode : Constant Bit rate : 4 298 kb/s Nominal bit rate : 10 000 kb/s Width : 1 920 pixels Height : 1 080 pixels Display aspect ratio : 16:9 Frame rate mode : Constant Frame rate : 29.970 (29970/1000) FPS Original frame rate : 29.970 (30000/1001) FPS Color space : YUV Chroma subsampling : 4:2:0 Bit depth : 8 bits Scan type : Progressive Bits/(Pixel*Frame) : 0.069 Stream size : 1.39 GiB (91%) Default : Yes Forced : No Color range : Limited Color primaries : BT.709 Transfer characteristics : BT.709 Matrix coefficients : BT.709 Audio #1 ID : 2 Format : E-AC-3 Format/Info : Enhanced AC-3 Commercial name : Dolby Digital Plus Codec ID : A_EAC3 Duration : 46 min 23 s Bit rate mode : Constant Bit rate : 224 kb/s Channel(s) : 2 channels Channel layout : L R Sampling rate : 48.0 kHz Frame rate : 31.250 FPS (1536 SPF) Compression mode : Lossy Stream size : 74.3 MiB (5%) Title : 日本語 [オリジナル] Language : Japanese Service kind : Complete Main Default : Yes Forced : No Audio #2 ID : 3 Format : E-AC-3 Format/Info : Enhanced AC-3 Commercial name : Dolby Digital Plus Codec ID : A_EAC3 Duration : 46 min 23 s Bit rate mode : Constant Bit rate : 224 kb/s Channel(s) : 2 channels Channel layout : L R Sampling rate : 48.0 kHz Frame rate : 31.250 FPS (1536 SPF) Compression mode : Lossy Stream size : 74.3 MiB (5%) Title : 日本語 [解説放送音声] Language : Japanese Service kind : Complete Main Default : No Forced : No ```

File list