[neoDESU] Yohane the Parhelion: Sunshine in the Mirror [Season 1] [BD 1080p x265 HEVC OPUS] Genjitsu no Yohane: Sunshine in the Mirror

Category:
Date:
2024-04-14 14:28 UTC
Submitter:
Seeders:
17
Information:
Leechers:
1
File size:
3.9 GiB
Completed:
686
Info hash:
72e16e8857e43fa5ffdc17198eb8404696f7e507
![](https://i.lensdump.com/i/6BKULK.png) *Come hang out in **[Discord](https://discord.gg/47Q7FdB54e)*** #### **[Yohane the Parhelion: Sunshine in the Mirror [Season 1]](https://myanimelist.net/anime/52214/Genjitsu_no_Yohane__Sunshine_in_the_Mirror)** --- **Synopsis** As a spirited young girl, Yohane ventured into the big city with ambitious dreams of becoming a star. Two years later, she has yet to pass a single audition. Since Yohane cannot support herself alone, her mother invites her back home to discover something new that only she can do. With limited options and an empty wallet, Yohane reluctantly returns to Numazu, her hometown. In the seaside town, Yohane reunites with her canine companion, Lailaps, and slowly settles in, opening a fortune-telling shop. She reconnects with old friends she had forgotten and meets new ones, all of whom help in her search for a unique purpose and meaningful path in life. Unfortunately, all is not well for Yohane and the people of Numazu: a mysterious power is affecting the town and disrupting nature and wildlife. While forging stronger bonds with her newfound allies, Yohane devotes her summer to finding the magic that may help save Numazu. ![](https://a.l3n.co/i/OGiCWK.png) --- **Source** 🗃️ Video and JPN Audio (JPN BDMV): **[suicide69]** **[petertin123]** 🗃️ Subtitles: **[[Setsugen]](https://nyaa.si/view/1689673)** 💬 *Subtitles Info: [Setsugen]* *Thank you all for making this possible <3* --- **Media Info** ``` General Unique ID : 60703579651297648098897116640725286801 (0x2DAB158CB3B9E50868433C0CFECDBF91) Complete name : Yohane the Parhelion - Sunshine in the Mirror - S01E01.mkv Format : Matroska Format version : Version 4 File size : 302 MiB Duration : 23 min 41 s Overall bit rate : 1 782 kb/s Encoded date : UTC 2024-04-14 14:06:37 Writing application : mkvmerge v72.0.0 ('Minuano (Six-eight)') 64-bit Writing library : libebml v1.4.4 + libmatroska v1.7.1 / Lavf60.3.100 Attachments : MyriadPro-Semibold.ttf / MyriadPro-SemiboldIt.otf / Cheesecake.ttf / FF Yoga Sans Pro Bold.otf / Kalam-Regular.ttf / LifeFormBB-Edited.otf / NothingYouCouldSay-Regular.ttf / TsubameStdR-STR.otf / Typo-Grotesk-Rounded-Demo.ttf Video ID : 1 Format : HEVC Format/Info : High Efficiency Video Coding Format profile : Main 10@L4@High Codec ID : V_MPEGH/ISO/HEVC Duration : 23 min 41 s Bit rate : 1 625 kb/s Width : 1 920 pixels Height : 1 080 pixels Display aspect ratio : 16:9 Frame rate mode : Constant Frame rate : 23.976 (24000/1001) FPS Color space : YUV Chroma subsampling : 4:2:0 Bit depth : 10 bits Bits/(Pixel*Frame) : 0.033 Stream size : 275 MiB (91%) Writing library : x265 3.5+37+12-4e46995bc:[Windows][MSVC 1931][64 bit] 10bit Encoding settings : cpuid=1111039 / frame-threads=5 / numa-pools=32 / wpp / no-pmode / no-pme / no-psnr / no-ssim / log-level=2 / input-csp=1 / input-res=1920x1080 / interlace=0 / total-frames=107 / level-idc=40 / high-tier=1 / uhd-bd=0 / ref=5 / no-allow-non-conformance / no-repeat-headers / annexb / no-aud / no-eob / no-eos / no-hrd / info / hash=0 / no-temporal-layers / open-gop / min-keyint=23 / keyint=250 / gop-lookahead=0 / bframes=16 / b-adapt=2 / b-pyramid / bframe-bias=0 / rc-lookahead=120 / lookahead-slices=4 / scenecut=40 / no-hist-scenecut / radl=0 / no-splice / no-intra-refresh / ctu=64 / min-cu-size=8 / rect / no-amp / max-tu-size=32 / tu-inter-depth=1 / tu-intra-depth=1 / limit-tu=0 / rdoq-level=1 / dynamic-rd=0.00 / no-ssim-rd / signhide / no-tskip / nr-intra=0 / nr-inter=0 / no-constrained-intra / no-strong-intra-smoothing / max-merge=3 / limit-refs=3 / limit-modes / me=3 / subme=3 / merange=57 / temporal-mvp / no-frame-dup / no-hme / weightp / no-weightb / no-analyze-src-pics / deblock=-1:-1 / no-sao / no-sao-non-deblock / rd=4 / selective-sao=0 / no-early-skip / rskip / no-fast-intra / no-tskip-fast / no-cu-lossless / no-b-intra / no-splitrd-skip / rdpenalty=0 / psy-rd=1.50 / psy-rdoq=2.00 / no-rd-refine / no-lossless / cbqpoffs=0 / crqpoffs=0 / rc=crf / crf=22.0 / qcomp=0.60 / qpstep=4 / stats-write=0 / stats-read=0 / vbv-maxrate=30000 / vbv-bufsize=30000 / vbv-init=0.9 / min-vbv-fullness=50.0 / max-vbv-fullness=80.0 / crf-max=0.0 / crf-min=0.0 / ipratio=1.40 / pbratio=1.30 / aq-mode=3 / aq-strength=0.80 / aq-bias-strength=1.00 / cutree / zone-count=0 / no-strict-cbr / qg-size=32 / no-rc-grain / qpmax=69 / qpmin=0 / no-const-vbv / sar=0 / overscan=0 / videoformat=5 / range=0 / colorprim=2 / transfer=2 / colormatrix=2 / chromaloc=0 / display-window=0 / cll=0,0 / min-luma=0 / max-luma=1023 / log2-max-poc-lsb=8 / vui-timing-info / vui-hrd-info / slices=1 / no-opt-qp-pps / no-opt-ref-list-length-pps / no-multi-pass-opt-rps / scenecut-bias=0.05 / hist-threshold=0.03 / no-opt-cu-delta-qp / no-aq-motion / no-hdr10 / no-hdr10-opt / no-dhdr10-opt / no-idr-recovery-sei / analysis-reuse-level=0 / analysis-save-reuse-level=0 / analysis-load-reuse-level=0 / scale-factor=0 / refine-intra=0 / refine-inter=0 / refine-mv=1 / refine-ctu-distortion=0 / no-limit-sao / ctu-info=0 / no-lowpass-dct / refine-analysis-type=0 / copy-pic=1 / max-ausize-factor=1.0 / no-dynamic-refine / no-single-sei / no-hevc-aq / no-svt / no-field / qp-adaptation-range=1.00 / scenecut-aware-qp=0conformance-window-offsets / right=0 / bottom=0 / decoder-max-rate=0 / no-vbv-live-multi-pass Default : Yes Forced : No Audio ID : 2 Format : Opus Codec ID : A_OPUS Duration : 23 min 41 s Bit rate : 129 kb/s Channel(s) : 2 channels Channel layout : L R Sampling rate : 48.0 kHz Frame rate : 50.000 FPS (960 SPF) Bit depth : 32 bits Compression mode : Lossy Stream size : 21.8 MiB (7%) Title : Japanese Writing library : Lavc60.3.100 libopus Language : Japanese Default : Yes Forced : No Text ID : 3 Format : ASS Codec ID : S_TEXT/ASS Codec ID/Info : Advanced Sub Station Alpha Duration : 23 min 40 s Bit rate : 17.6 kb/s Frame rate : 6.488 FPS Count of elements : 9213 Compression mode : Lossless Stream size : 2.97 MiB (1%) Title : Dialogue Language : English Default : Yes Forced : No Menu 00:00:00.000 : en:Intro 00:00:49.030 : en:Episode 00:21:55.000 : en:ED 00:23:25.010 : en:Outro 00:23:35.020 : en:Preview ```

File list

  • [neoDESU] Yohane the Parhelion - Sunshine in the Mirror [Season 1] [BD 1080p x265 HEVC OPUS]
    • Yohane the Parhelion - Sunshine in the Mirror - S01E01.mkv (301.9 MiB)
    • Yohane the Parhelion - Sunshine in the Mirror - S01E02.mkv (287.7 MiB)
    • Yohane the Parhelion - Sunshine in the Mirror - S01E03.mkv (315.2 MiB)
    • Yohane the Parhelion - Sunshine in the Mirror - S01E04.mkv (358.2 MiB)
    • Yohane the Parhelion - Sunshine in the Mirror - S01E05.mkv (297.2 MiB)
    • Yohane the Parhelion - Sunshine in the Mirror - S01E06.mkv (297.0 MiB)
    • Yohane the Parhelion - Sunshine in the Mirror - S01E07.mkv (344.8 MiB)
    • Yohane the Parhelion - Sunshine in the Mirror - S01E08.mkv (389.4 MiB)
    • Yohane the Parhelion - Sunshine in the Mirror - S01E09.mkv (272.2 MiB)
    • Yohane the Parhelion - Sunshine in the Mirror - S01E10.mkv (218.3 MiB)
    • Yohane the Parhelion - Sunshine in the Mirror - S01E11.mkv (239.7 MiB)
    • Yohane the Parhelion - Sunshine in the Mirror - S01E12.mkv (293.4 MiB)
    • Yohane the Parhelion - Sunshine in the Mirror - S01E13.mkv (392.9 MiB)