[neoDESU] Ayakashi Triangle [Season 1] [BD 1080p x265 HEVC OPUS]

Category:
Date:
2024-04-04 16:47 UTC
Submitter:
Seeders:
24
Information:
Leechers:
3
File size:
3.3 GiB
Completed:
912
Info hash:
4862082e424b2fd5354f4eb4be7095297a3a8e28
![](https://i.lensdump.com/i/6BKULK.png) *Come hang out in **[Discord](https://discord.gg/47Q7FdB54e)*** #### **[Ayakashi Triangle [Season 1]](https://myanimelist.net/anime/50606/Ayakashi_Triangle)** #### **[Ayakashi Triangle Special Recap [Special]](https://myanimelist.net/anime/54775/Ayakashi_Triangle_Recap)** --- **Notes:** . Restyled special episode to match the season . Inserted OP/ED into special episode --- **Synopsis** Ayakashi are strange, supernatural creatures invisible to the majority of people. Though most are harmless, some ayakashi attack humans to devour their life force. Exorcist ninjas are tasked with protecting people from these spiteful spirits. Matsuri Kazamaki is a young exorcist ninja born to a prestigious clan. His childhood friend, Suzu Kanade, is an ayakashi medium—an individual with immense vitality that attracts ayakashi. Matsuri deems all ayakashi threatening and wishes to keep Suzu as far from them as possible, but this clashes with her desire to remain close to them. One day, the pair encounters Shirogane, the "King of Ayakashi," who is hellbent on consuming Suzu. As she is about to be eaten, Matsuri comes to the rescue and manages to seal the ayakashi's powers—but not before Shirogane takes revenge by turning him into a girl! Until he finds a way to transform back, Matsuri must adjust to his new, peculiar lifestyle while fighting against hostile ayakashi. Moreover, Suzu is now conflicted about her feelings toward Matsuri—further plunging their relationship into a state of ambiguity. ![](https://c.l3n.co/i/OE1mm1.png) --- **Source** 🗃️ Video and JPN Audio (JPN BDMV): **[[Lupin the Nerd]](https://nyaa.si/view/1722489)** 🗃️ Subtitles: **[[Chihiro]](https://nyaa.si/view/1798304)** EP 1-12 **[[SubsPlease]](https://nyaa.si/view/1651525)** Special EP 6.5 💬 *Subtitles Info: [Chihiro]* *Thank you all for making this possible <3* --- **Media Info** ``` General Unique ID : 13733504331475530675797786411577176307 (0xA54FA0A8A61969A8C16FE26AB9CF0F3) Complete name : Ayakashi Triangle - S01E01.mkv Format : Matroska Format version : Version 4 File size : 338 MiB Duration : 23 min 41 s Overall bit rate : 1 997 kb/s Encoded date : UTC 2024-02-18 13:43:58 Writing application : mkvmerge v72.0.0 ('Minuano (Six-eight)') 64-bit Writing library : libebml v1.4.4 + libmatroska v1.7.1 / Lavf60.3.100 Attachments : fading-wornarmychalk-regular.ttf / KozMinPro-Heavy.otf / Kozuka Gothic Pro H.otf / Marker SD.ttf / MarkingPen Regular.ttf / Mirakurun logo Heavy.ttf / Montara-Gothic-NEW.ttf / Nunito-ExtraBold.ttf / SchoolRules.ttf / Thanksgiving.TTF / Vanilla Twilight.otf / arialbd.ttf / ArtificeSSK.ttf / bBeshary.ttf / Chinela Brush.ttf Video ID : 1 Format : HEVC Format/Info : High Efficiency Video Coding Format profile : Main 10@L4@High Codec ID : V_MPEGH/ISO/HEVC Duration : 23 min 41 s Bit rate : 1 831 kb/s Width : 1 920 pixels Height : 1 080 pixels Display aspect ratio : 16:9 Frame rate mode : Constant Frame rate : 23.976 (24000/1001) FPS Color space : YUV Chroma subsampling : 4:2:0 Bit depth : 10 bits Bits/(Pixel*Frame) : 0.037 Stream size : 310 MiB (92%) Writing library : x265 3.5+37+12-4e46995bc:[Windows][MSVC 1931][64 bit] 10bit Encoding settings : cpuid=1111039 / frame-threads=5 / numa-pools=32 / wpp / no-pmode / no-pme / no-psnr / no-ssim / log-level=2 / input-csp=1 / input-res=1920x1080 / interlace=0 / total-frames=84 / level-idc=40 / high-tier=1 / uhd-bd=0 / ref=5 / no-allow-non-conformance / no-repeat-headers / annexb / no-aud / no-eob / no-eos / no-hrd / info / hash=0 / no-temporal-layers / open-gop / min-keyint=23 / keyint=250 / gop-lookahead=0 / bframes=16 / b-adapt=2 / b-pyramid / bframe-bias=0 / rc-lookahead=120 / lookahead-slices=4 / scenecut=40 / no-hist-scenecut / radl=0 / no-splice / no-intra-refresh / ctu=64 / min-cu-size=8 / rect / no-amp / max-tu-size=32 / tu-inter-depth=1 / tu-intra-depth=1 / limit-tu=0 / rdoq-level=1 / dynamic-rd=0.00 / no-ssim-rd / signhide / no-tskip / nr-intra=0 / nr-inter=0 / no-constrained-intra / no-strong-intra-smoothing / max-merge=3 / limit-refs=3 / limit-modes / me=3 / subme=3 / merange=57 / temporal-mvp / no-frame-dup / no-hme / weightp / no-weightb / no-analyze-src-pics / deblock=-1:-1 / no-sao / no-sao-non-deblock / rd=4 / selective-sao=0 / no-early-skip / rskip / no-fast-intra / no-tskip-fast / no-cu-lossless / no-b-intra / no-splitrd-skip / rdpenalty=0 / psy-rd=1.50 / psy-rdoq=2.00 / no-rd-refine / no-lossless / cbqpoffs=0 / crqpoffs=0 / rc=crf / crf=22.0 / qcomp=0.60 / qpstep=4 / stats-write=0 / stats-read=0 / vbv-maxrate=30000 / vbv-bufsize=30000 / vbv-init=0.9 / min-vbv-fullness=50.0 / max-vbv-fullness=80.0 / crf-max=0.0 / crf-min=0.0 / ipratio=1.40 / pbratio=1.30 / aq-mode=3 / aq-strength=0.80 / aq-bias-strength=1.00 / cutree / zone-count=0 / no-strict-cbr / qg-size=32 / no-rc-grain / qpmax=69 / qpmin=0 / no-const-vbv / sar=0 / overscan=0 / videoformat=5 / range=0 / colorprim=2 / transfer=2 / colormatrix=2 / chromaloc=0 / display-window=0 / cll=0,0 / min-luma=0 / max-luma=1023 / log2-max-poc-lsb=8 / vui-timing-info / vui-hrd-info / slices=1 / no-opt-qp-pps / no-opt-ref-list-length-pps / no-multi-pass-opt-rps / scenecut-bias=0.05 / hist-threshold=0.03 / no-opt-cu-delta-qp / no-aq-motion / no-hdr10 / no-hdr10-opt / no-dhdr10-opt / no-idr-recovery-sei / analysis-reuse-level=0 / analysis-save-reuse-level=0 / analysis-load-reuse-level=0 / scale-factor=0 / refine-intra=0 / refine-inter=0 / refine-mv=1 / refine-ctu-distortion=0 / no-limit-sao / ctu-info=0 / no-lowpass-dct / refine-analysis-type=0 / copy-pic=1 / max-ausize-factor=1.0 / no-dynamic-refine / no-single-sei / no-hevc-aq / no-svt / no-field / qp-adaptation-range=1.00 / scenecut-aware-qp=0conformance-window-offsets / right=0 / bottom=0 / decoder-max-rate=0 / no-vbv-live-multi-pass Default : Yes Forced : No Audio ID : 2 Format : Opus Codec ID : A_OPUS Duration : 23 min 41 s Bit rate : 124 kb/s Channel(s) : 2 channels Channel layout : L R Sampling rate : 48.0 kHz Frame rate : 50.000 FPS (960 SPF) Bit depth : 32 bits Compression mode : Lossy Stream size : 21.0 MiB (6%) Title : Japanese Writing library : Lavc60.3.100 libopus Language : Japanese Default : Yes Forced : No Text ID : 3 Format : ASS Codec ID : S_TEXT/ASS Codec ID/Info : Advanced Sub Station Alpha Duration : 23 min 26 s Bit rate : 4 141 b/s Frame rate : 5.266 FPS Count of elements : 7409 Compression mode : Lossless Stream size : 711 KiB (0%) Title : Dialogue Language : English Default : Yes Forced : No Menu 00:00:00.000 : :Prologue 00:01:31.008 : :Opening 00:03:00.973 : :Episode 00:23:34.998 : :Preview ```

File list

  • [neoDESU] Ayakashi Triangle [Season 1] [BD 1080p x265 HEVC OPUS]
    • Season 1
      • Ayakashi Triangle - S01E01.mkv (338.2 MiB)
      • Ayakashi Triangle - S01E02.mkv (267.1 MiB)
      • Ayakashi Triangle - S01E03.mkv (267.8 MiB)
      • Ayakashi Triangle - S01E04.mkv (203.0 MiB)
      • Ayakashi Triangle - S01E05.mkv (210.4 MiB)
      • Ayakashi Triangle - S01E06.mkv (229.3 MiB)
      • Ayakashi Triangle - S01E07.mkv (254.3 MiB)
      • Ayakashi Triangle - S01E08.mkv (235.5 MiB)
      • Ayakashi Triangle - S01E09.mkv (253.2 MiB)
      • Ayakashi Triangle - S01E10.mkv (282.2 MiB)
      • Ayakashi Triangle - S01E11.mkv (307.1 MiB)
      • Ayakashi Triangle - S01E12.mkv (252.1 MiB)
    • Specials
      • Ayakashi Triangle - S00E01 - [S01S01 EP 6.5 Recap].mkv (277.0 MiB)