[MagicStar] Koi wo Suru nara Nidomei ga Joutou EP05 [WEBDL] [1080p] [AMZN] [JPN_SUB]

Category:
Date:
2024-04-03 03:17 UTC
Submitter:
Seeders:
5
Information:
Leechers:
0
File size:
1.1 GiB
Completed:
416
Info hash:
7c38aab35e34c066d7335d87166261a666b2976a
HD 1080p from Prime Video. Use CBR bitrate mode. Japanese subtitles added. ************** We are planning to upload all Prime Video Japan Dramas and Movies, we need your Support! ************** Support Us Ali (Zhifubao / QR code): https://i.ibb.co/FWV2ggm/1660626347125.png PayPalMe: https://www.paypal.com/paypalme/sakuragikenji ETH (ERC20): 0xea3286E176099E8C9aBaf25A0edf231374C04E89 USDT (BTC / OMNI): 1Lemw6fu5vG3NdvWGxDxsPX7T7yUb3rNzu ************** ![alt text](https://i.ibb.co/9tyF4PF/dd5d9cf7ab189fb577a74e8a5c6ce38fa49a43c8ec339840c632b0ffa7ef0a22.jpg) ![alt text](https://i.ibb.co/GkmKn1j/Koi-wo-Suru-nara-Nidome-ga-Joutou-EP05-1080p-AMZN-WEB-DL-DDP2-0-H-264-Magic-Star-mkv.jpg) ``` General Unique ID : 171055162024214901128007770670988215827 (0x80B0069F507B7AB104BF400B650B4613) Complete name : Koi.wo.Suru.nara.Nidome.ga.Joutou.EP05.1080p.AMZN.WEB-DL.DDP2.0.H.264-MagicStar.mkv Format : Matroska Format version : Version 4 File size : 1.10 GiB Duration : 24 min 5 s Overall bit rate mode : Constant Overall bit rate : 6 544 kb/s Frame rate : 23.976 FPS Encoded date : 2024-04-03 03:09:25 UTC Writing application : mkvmerge v50.0.0 ('Awakenings') 64-bit Writing library : libebml v1.4.0 + libmatroska v1.6.2 Cover : Yes Attachments : cover.jpg Video ID : 1 Format : AVC Format/Info : Advanced Video Codec Format profile : High@L4 Format settings : CABAC / 4 Ref Frames Format settings, CABAC : Yes Format settings, Reference fra : 4 frames Codec ID : V_MPEG4/ISO/AVC Duration : 24 min 5 s Bit rate mode : Constant Bit rate : 6 317 kb/s Nominal bit rate : 10 000 kb/s Width : 1 920 pixels Height : 1 080 pixels Display aspect ratio : 16:9 Frame rate mode : Constant Frame rate : 23.976 (24000/1001) FPS Color space : YUV Chroma subsampling : 4:2:0 Bit depth : 8 bits Scan type : Progressive Bits/(Pixel*Frame) : 0.127 Stream size : 1.06 GiB (97%) Default : Yes Forced : No Color range : Limited Color primaries : BT.709 Transfer characteristics : BT.709 Matrix coefficients : BT.709 Audio ID : 2 Format : E-AC-3 Format/Info : Enhanced AC-3 Commercial name : Dolby Digital Plus Codec ID : A_EAC3 Duration : 24 min 5 s Bit rate mode : Constant Bit rate : 224 kb/s Channel(s) : 2 channels Channel layout : L R Sampling rate : 48.0 kHz Frame rate : 31.250 FPS (1536 SPF) Compression mode : Lossy Stream size : 38.6 MiB (3%) Title : 日本語 [オリジナル] Language : Japanese Service kind : Complete Main Default : Yes Forced : No ```

File list