[MagicStar] PICU Shouni Shuuchuu Chiryoushitsu SP 2024 Spin-off [WEBDL] [1080p] [AMZN]

Category:
Date:
2024-04-03 03:02 UTC
Submitter:
Seeders:
7
Information:
Leechers:
0
File size:
1.7 GiB
Completed:
845
Info hash:
8e9439f6c53e556e5593167ef00a40a8d1b0ac62
HD 1080p from Prime Video. Use CBR bitrate mode. ************** We are planning to upload all Prime Video Japan Dramas and Movies, we need your Support! ************** Support Us Ali (Zhifubao / QR code): https://i.ibb.co/FWV2ggm/1660626347125.png PayPalMe: https://www.paypal.com/paypalme/sakuragikenji ETH (ERC20): 0xea3286E176099E8C9aBaf25A0edf231374C04E89 USDT (BTC / OMNI): 1Lemw6fu5vG3NdvWGxDxsPX7T7yUb3rNzu ************** ![alt text](https://i.ibb.co/BPDCrNP/18715fca6490c470dc9614983e9b038fb3b7171a97d70f0d0d70e81a6dbee7d1.jpg) ![alt text](https://i.ibb.co/NS9tQBS/PICU-Shouni-Shuuchuu-Chiryoushitsu-SP-2024-Spin-off-1080p-AMZN-WEB-DL-DDP2-0-H-264-Magic-Star-mkv.jpg) ``` General Unique ID : 188839043811908713156101547105895738474 (0x8E1113B0AE36ADF7B2F055C9D7726C6A) Complete name : PICU.Shouni.Shuuchuu.Chiryoushitsu.SP.2024.Spin.off.1080p.AMZN.WEB-DL.DDP2.0.H.264-MagicStar.mkv Format : Matroska Format version : Version 4 File size : 1.70 GiB Duration : 44 min 4 s Overall bit rate mode : Constant Overall bit rate : 5 509 kb/s Frame rate : 29.970 FPS Encoded date : 2024-04-03 02:24:07 UTC Writing application : mkvmerge v50.0.0 ('Awakenings') 64-bit Writing library : libebml v1.4.0 + libmatroska v1.6.2 Cover : Yes Attachments : cover.jpg Video ID : 1 Format : AVC Format/Info : Advanced Video Codec Format profile : High@L4 Format settings : CABAC / 4 Ref Frames Format settings, CABAC : Yes Format settings, Reference fra : 4 frames Codec ID : V_MPEG4/ISO/AVC Duration : 44 min 3 s Bit rate mode : Constant Bit rate : 5 282 kb/s Nominal bit rate : 10 000 kb/s Width : 1 920 pixels Height : 1 080 pixels Display aspect ratio : 16:9 Frame rate mode : Constant Frame rate : 29.970 (29970/1000) FPS Original frame rate : 29.970 (30000/1001) FPS Color space : YUV Chroma subsampling : 4:2:0 Bit depth : 8 bits Scan type : Progressive Bits/(Pixel*Frame) : 0.085 Stream size : 1.63 GiB (96%) Default : Yes Forced : No Color range : Limited Color primaries : BT.709 Transfer characteristics : BT.709 Matrix coefficients : BT.709 Audio ID : 2 Format : E-AC-3 Format/Info : Enhanced AC-3 Commercial name : Dolby Digital Plus Codec ID : A_EAC3 Duration : 44 min 4 s Bit rate mode : Constant Bit rate : 224 kb/s Channel(s) : 2 channels Channel layout : L R Sampling rate : 48.0 kHz Frame rate : 31.250 FPS (1536 SPF) Compression mode : Lossy Stream size : 70.6 MiB (4%) Title : 日本語 [オリジナル] Language : Japanese Service kind : Complete Main Default : Yes Forced : No ```

File list