[neoDESU] The Misfit of Demon King Academy [Season 2] [BD 1080p x265 HEVC OPUS AAC] [Dual Audio] Maou Gakuin no Futekigousha

Category:
Date:
2024-03-30 18:24 UTC
Submitter:
Seeders:
17
Information:
Leechers:
1
File size:
5.2 GiB
Completed:
665
Info hash:
ff0d818db89a72e2bdc4a4259ef41adaa6f8ad13
![](https://i.lensdump.com/i/6BKULK.png) *Come hang out in **[Discord](https://discord.gg/47Q7FdB54e)*** #### **[The Misfit of Demon King Academy [Season 2]](https://myanimelist.net/anime/48417/Maou_Gakuin_no_Futekigousha_II__Shijou_Saikyou_no_Maou_no_Shiso_Tensei_shite_Shison-tachi_no_Gakkou_e_Kayou)** --- **Synopsis** As peace returns to the demon realm, Anos Voldigoad wishes nothing more than to put his reputation as the Demon King of Tyranny to rest and go back to being a misfit at the prestigious Demon King Academy. Unfortunately, any tranquility is fleeting: sinister demons, kings, and deities plot Anos's demise from the shadows. Rumors spread about the "Child of God," a being whose power may rival that of Anos. To uncover the truth and eliminate the potential threat, Anos must journey deep into the land of spirits. However, the spirit world is shrouded in mystery, and it may only be entered after undergoing a series of difficult trials. With unrivaled power and confidence, Anos braces himself to defeat various formidable enemies with grandiose titles. But he—with the assistance of his trusted allies—will barely have to break a sweat as the true Demon King of Tyranny. ![](https://c.l3n.co/i/OIJrZq.png) --- **Language Options** I included two simple scripts that you can apply to these files to do the following (Windows only): 1. Make [Single Audio] Japanese: Throws out *English audio* and *Signs&Songs subtitles* tracks 2. Make [Single Audio] English: Throws out *Japanese audio* and *Dialogue subtitles* tracks To apply these put all the video files into the *Language Options* folder and run the .bat file. *Don't combine them and only use them once together with the base files.* --- **Source** 🗃️ Video and JPN Audio (JPN BDMV): **[[Lupin the Nerd]](https://nyaa.si/view/1735910)** 🗃️ ENG Audio (WEB): **[[Yameii]](https://nyaa.si/view/1642278)** 🗃️ Subtitles: **[[Asakura]](https://nyaa.si/view/1796324)** 💬 *Subtitles Info: [Asakura]* *Thank you all for making this possible <3* --- **Media Info** ``` General Unique ID : 190658238641981721069487702100095691969 (0x8F6F70EB913BC5766DB1F3A45BFE6CC1) Complete name : The Misfit of Demon King Academy - S02E01.mkv Format : Matroska Format version : Version 4 File size : 262 MiB Duration : 23 min 41 s Overall bit rate : 1 549 kb/s Encoded date : UTC 2024-03-30 16:03:21 Writing application : mkvmerge v72.0.0 ('Minuano (Six-eight)') 64-bit Writing library : libebml v1.4.4 + libmatroska v1.7.1 Attachments : Arlekino.ttf / GandhiSans-Bold.otf / GandhiSans-BoldItalic.otf / iCielAmerigraf.otf Video ID : 1 Format : HEVC Format/Info : High Efficiency Video Coding Format profile : Main 10@L4@High Codec ID : V_MPEGH/ISO/HEVC Duration : 23 min 41 s Bit rate : 1 288 kb/s Width : 1 920 pixels Height : 1 080 pixels Display aspect ratio : 16:9 Frame rate mode : Constant Frame rate : 23.976 (24000/1001) FPS Color space : YUV Chroma subsampling : 4:2:0 Bit depth : 10 bits Bits/(Pixel*Frame) : 0.026 Stream size : 218 MiB (83%) Writing library : x265 3.5+37+12-4e46995bc:[Windows][MSVC 1931][64 bit] 10bit Default : Yes Forced : No Audio #1 ID : 2 Format : AAC LC Format/Info : Advanced Audio Codec Low Complexity Codec ID : A_AAC-2 Duration : 23 min 40 s Bit rate : 128 kb/s Channel(s) : 2 channels Channel layout : L R Sampling rate : 44.1 kHz Frame rate : 43.066 FPS (1024 SPF) Compression mode : Lossy Stream size : 21.7 MiB (8%) Title : English Language : English Default : Yes Forced : No Audio #2 ID : 3 Format : Opus Codec ID : A_OPUS Duration : 23 min 41 s Bit rate : 127 kb/s Channel(s) : 2 channels Channel layout : L R Sampling rate : 48.0 kHz Frame rate : 50.000 FPS (960 SPF) Bit depth : 32 bits Compression mode : Lossy Stream size : 21.6 MiB (8%) Title : Japanese Language : Japanese Default : No Forced : No Text #1 ID : 4 Format : ASS Codec ID : S_TEXT/ASS Codec ID/Info : Advanced Sub Station Alpha Duration : 16 min 54 s Bit rate : 58 b/s Frame rate : 0.025 FPS Count of elements : 25 Compression mode : Lossless Stream size : 7.30 KiB (0%) Title : Signs & Songs Language : English Default : No Forced : Yes Text #2 ID : 5 Format : ASS Codec ID : S_TEXT/ASS Codec ID/Info : Advanced Sub Station Alpha Duration : 23 min 24 s Bit rate : 185 b/s Frame rate : 0.313 FPS Count of elements : 439 Compression mode : Lossless Stream size : 31.8 KiB (0%) Title : Dialogue Language : English Default : Yes Forced : No Menu 00:00:00.000 : en:Part A 00:15:40.960 : en:Part B 00:23:34.980 : en:Next Episode ```

File list

  • [neoDESU] The Misfit of Demon King Academy [Season 2] [BD 1080p x265 HEVC OPUS AAC] [Dual Audio]
    • Language Options
      • 1. Make [Single Audio] English.bat (254 Bytes)
      • 2. Make [Single Audio] Japanese.bat (254 Bytes)
      • mkvmerge.exe (9.6 MiB)
      • readme.txt (511 Bytes)
    • The Misfit of Demon King Academy - S02E01.mkv (262.4 MiB)
    • The Misfit of Demon King Academy - S02E02.mkv (469.7 MiB)
    • The Misfit of Demon King Academy - S02E03.mkv (322.1 MiB)
    • The Misfit of Demon King Academy - S02E04.mkv (477.5 MiB)
    • The Misfit of Demon King Academy - S02E05.mkv (592.2 MiB)
    • The Misfit of Demon King Academy - S02E06.mkv (327.9 MiB)
    • The Misfit of Demon King Academy - S02E07.mkv (488.0 MiB)
    • The Misfit of Demon King Academy - S02E08.mkv (479.7 MiB)
    • The Misfit of Demon King Academy - S02E09.mkv (432.3 MiB)
    • The Misfit of Demon King Academy - S02E10.mkv (426.9 MiB)
    • The Misfit of Demon King Academy - S02E11.mkv (496.0 MiB)
    • The Misfit of Demon King Academy - S02E12.mkv (511.6 MiB)
Thank you so much for uploading the English Dubbed/Dual Version of the anime! You're the best!
Thanks for the dub!
Gracias. Any plans for Oshi no Ko?

neoborn (uploader)

User
**@Marmotzel** Yes, but I'm waiting for the subtitle source to make their blueray version first :)
So.. Starsugen? Not MTBB?

neoborn (uploader)

User
**@Marmotzel** I've set my eyes on Starsugen.