Laid-Back.Camp.the.Movie.2022.1080p.BluRay.10-Bit.FLAC7.1.x265-YURASUKA (Eiga Yuru Camp)

Category:
Date:
2024-03-30 05:59 UTC
Submitter:
Seeders:
20
Information:
Leechers:
0
File size:
7.1 GiB
Completed:
386
Info hash:
c4cc4d6235d2be005d74b77694244af526d0b64e
Laid-Back Camp the Movie / Eiga Yuru Camp (2022) A/V + Subtitles Source: [RaptoR@Nyaa](https://nyaa.si/view/1665351) (JPBD) [neoDESU] [Encode Comparison](https://slow.pics/c/ovtWju1R) ``` Complete name : Laid-Back.Camp.the.Movie.2022.1080p.BluRay.10-Bit.FLAC7.1.x265-YURASUKA.mkv Format : Matroska Format version : Version 4 File size : 7.09 GiB Duration : 2 h 0 min Overall bit rate mode : Variable Overall bit rate : 8 445 kb/s Frame rate : 23.976 FPS Movie name : Laid-Back Camp the Movie (2022) - YURASUKA Encoded date : 2024-03-30 04:52:29 UTC Writing application : mkvmerge v83.0 ('Circle Of Friends') 64-bit Writing library : libebml v1.4.5 + libmatroska v1.7.1 Cover : Yes Attachments : cover.jpg / CronosPro-Semibold.ttf / Cutewritten-Regular.ttf / GandhiSans-Bold.otf / GandhiSans-BoldItalic.otf / georgia.ttf / georgiab.ttf / georgiai.ttf / georgiaz.ttf / HorrorScribbles.ttf / impact.ttf / MADE Tommy Soft Bold PERSONAL USE.otf / MADE Tommy Soft Regular PERSONAL USE.otf / Mignone.ttf / NexaBook.otf / rabiohead.ttf / SKYBRUSH.otf / Tahoma Faux Italic.ttf / tahoma.ttf / tahomabd.ttf / times.ttf / timesbd.ttf / timesbi.ttf / Togalite-Bold.otf / trebuc.ttf / trebucbd.ttf / trebucbi.ttf / trebucit.ttf / verdana.ttf / verdanab.ttf / arial.ttf / arialbd.ttf / arialbi.ttf / Brushill.ttf / Brushmark.ttf / BUBBLEGUMSANS-REGULAR.OTF / Chalk Stick.otf / ChalkDust.ttf / comic.ttf / comicbd.ttf / comicz.ttf / CRONOSPRO-BOLD.OTF Video ID : 1 Format : HEVC Format/Info : High Efficiency Video Coding Format profile : Main 10@L5@High Codec ID : V_MPEGH/ISO/HEVC Duration : 2 h 0 min Bit rate : 6 888 kb/s Width : 1 920 pixels Height : 1 080 pixels Display aspect ratio : 16:9 Frame rate mode : Constant Frame rate : 23.976 (24000/1001) FPS Color space : YUV Chroma subsampling : 4:2:0 Bit depth : 10 bits Bits/(Pixel*Frame) : 0.139 Stream size : 5.78 GiB (82%) Title : YURASUKA 1080p x265 Writing library : x265 3.5:[Linux][GCC 11.2.0][64 bit] 10bit Encoding settings : cpuid=1176575 / frame-threads=5 / numa-pools=32 / wpp / no-pmode / no-pme / no-psnr / no-ssim / log-level=2 / input-csp=1 / input-res=1920x1080 / interlace=0 / total-frames=0 / level-idc=0 / high-tier=1 / uhd-bd=0 / ref=6 / no-allow-non-conformance / no-repeat-headers / annexb / no-aud / no-hrd / info / hash=0 / no-temporal-layers / open-gop / min-keyint=1 / keyint=360 / gop-lookahead=0 / bframes=16 / b-adapt=2 / b-pyramid / bframe-bias=0 / rc-lookahead=72 / lookahead-slices=4 / scenecut=40 / hist-scenecut=0 / radl=0 / no-splice / no-intra-refresh / ctu=32 / min-cu-size=8 / rect / amp / max-tu-size=32 / tu-inter-depth=3 / tu-intra-depth=3 / limit-tu=4 / rdoq-level=2 / dynamic-rd=0.00 / no-ssim-rd / signhide / tskip / nr-intra=0 / nr-inter=0 / no-constrained-intra / strong-intra-smoothing / max-merge=5 / limit-refs=3 / limit-modes / me=3 / subme=7 / merange=57 / temporal-mvp / no-frame-dup / no-hme / weightp / weightb / analyze-src-pics / deblock=0:0 / no-sao / no-sao-non-deblock / rd=6 / selective-sao=0 / no-early-skip / rskip / no-fast-intra / no-tskip-fast / no-cu-lossless / b-intra / no-splitrd-skip / rdpenalty=0 / psy-rd=2.00 / psy-rdoq=2.00 / no-rd-refine / no-lossless / cbqpoffs=-2 / crqpoffs=-2 / rc=crf / crf=16.0 / qcomp=0.72 / qpstep=4 / stats-write=0 / stats-read=0 / vbv-maxrate=40000 / vbv-bufsize=80000 / vbv-init=0.9 / min-vbv-fullness=50.0 / max-vbv-fullness=80.0 / crf-max=0.0 / crf-min=0.0 / ipratio=1.40 / pbratio=1.30 / aq-mode=3 / aq-strength=0.95 / cutree / zone-count=0 / no-strict-cbr / qg-size=32 / no-rc-grain / qpmax=69 / qpmin=0 / no-const-vbv / sar=1 / overscan=0 / videoformat=5 / range=0 / colorprim=1 / transfer=1 / colormatrix=1 / chromaloc=0 / display-window=0 / cll=0,0 / min-luma=0 / max-luma=1023 / log2-max-poc-lsb=8 / vui-timing-info / vui-hrd-info / slices=1 / no-opt-qp-pps / no-opt-ref-list-length-pps / no-multi-pass-opt-rps / scenecut-bias=0.05 / hist-threshold=0.03 / no-opt-cu-delta-qp / no-aq-motion / no-hdr10 / no-hdr10-opt / no-dhdr10-opt / no-idr-recovery-sei / analysis-reuse-level=0 / analysis-save-reuse-level=0 / analysis-load-reuse-level=0 / scale-factor=0 / refine-intra=0 / refine-inter=0 / refine-mv=1 / refine-ctu-distortion=0 / no-limit-sao / ctu-info=0 / no-lowpass-dct / refine-analysis-type=0 / copy-pic=1 / max-ausize-factor=1.0 / no-dynamic-refine / no-single-sei / no-hevc-aq / no-svt / no-field / qp-adaptation-range=1.00 / scenecut-aware-qp=0conformance-window-offsets / right=0 / bottom=0 / decoder-max-rate=0 / no-vbv-live-multi-pass Language : Japanese Default : Yes Forced : No Color range : Limited Color primaries : BT.709 Transfer characteristics : BT.709 Matrix coefficients : BT.709 Audio ID : 2 Format : FLAC Format/Info : Free Lossless Audio Codec Codec ID : A_FLAC Duration : 2 h 0 min Bit rate mode : Variable Bit rate : 1 515 kb/s Channel(s) : 8 channels Channel layout : L R C LFE Lb Rb Ls Rs Sampling rate : 48.0 kHz Frame rate : 10.417 FPS (4608 SPF) Bit depth : 16 bits Compression mode : Lossless Stream size : 1.27 GiB (18%) Title : Japanese FLAC 7.1 Writing library : Lavf60.16.100 Language : Japanese Default : Yes Forced : No MD5 of the unencoded content : 712897E44997FBA19C0B75864D2D568D Text #1 ID : 3 Format : ASS Codec ID : S_TEXT/ASS Codec ID/Info : Advanced Sub Station Alpha Duration : 1 h 58 min Bit rate : 17.7 kb/s Frame rate : 13.120 FPS Count of elements : 93615 Compression mode : Lossless Stream size : 15.0 MiB (0%) Title : Full Subtitles [neoDESU] (Modified) Language : English Default : Yes Forced : No Text #2 ID : 4 Format : ASS Codec ID : S_TEXT/ASS Codec ID/Info : Advanced Sub Station Alpha Duration : 1 h 58 min Bit rate : 117 b/s Frame rate : 0.214 FPS Count of elements : 1529 Compression mode : Lossless Stream size : 102 KiB (0%) Title : Full Subtitles (Crunchyroll) Language : English (US) Default : No Forced : No Menu 00:00:00.000 : en:Chapter 01 00:04:29.269 : en:Chapter 02 00:06:04.364 : en:Chapter 03 00:17:20.790 : en:Chapter 04 00:31:37.646 : en:Chapter 05 00:37:13.731 : en:Chapter 06 00:46:41.424 : en:Chapter 07 00:53:18.195 : en:Chapter 08 00:58:36.263 : en:Chapter 09 01:09:44.680 : en:Chapter 10 01:24:16.426 : en:Chapter 11 01:34:28.788 : en:Chapter 12 01:47:44.208 : en:Chapter 13 01:54:16.725 : en:Chapter 14 01:56:10.964 : en:Chapter 15 ``` Dead end for a sucker that’s a sucker like me. 私のようなカモの行き止まりです。

File list