Laid-Back.Camp.the.Movie.2022.2160p.UHD.BluRay.DV.HDR10.FLAC7.1.x265-YURASUKA (Eiga Yuru Camp)

Category:
Date:
2024-03-23 05:28 UTC
Submitter:
Seeders:
10
Information:
Leechers:
0
File size:
12.1 GiB
Completed:
240
Info hash:
01af1c7c5f149311d65a813f0a139acdeb8331d0
Laid-Back Camp the Movie / Eiga Yuru Camp (2022) 4K with Dolby Vision, HDR10, and 7.1 audio yet still less bloated than the average sam release. A/V + Subtitles Source: [nyadex@Nyaa](https://nyaa.si/view/1691347) (JPBD) [neoDESU] [Encode Comparison](https://slow.pics/c/ilZoZC61) (BT.2446a tonemapping) ``` Complete name : Laid-Back.Camp.the.Movie.2022.2160p.UHD.BluRay.DV.HDR10.FLAC7.1.x265-YURASUKA.mkv Format : Matroska Format version : Version 4 File size : 12.1 GiB Duration : 2 h 0 min Overall bit rate mode : Variable Overall bit rate : 14.5 Mb/s Frame rate : 23.976 FPS Movie name : Laid-Back Camp the Movie (2022) - YURASUKA Encoded date : 2024-03-19 21:24:08 UTC Writing application : mkvmerge v83.0 ('Circle Of Friends') 64-bit Writing library : libebml v1.4.5 + libmatroska v1.7.1 Cover : Yes Attachments : cover.jpg / CronosPro-Semibold.ttf / Cutewritten-Regular.ttf / GandhiSans-Bold.otf / GandhiSans-BoldItalic.otf / georgia.ttf / georgiab.ttf / georgiai.ttf / georgiaz.ttf / HorrorScribbles.ttf / impact.ttf / MADE Tommy Soft Bold PERSONAL USE.otf / MADE Tommy Soft Regular PERSONAL USE.otf / Mignone.ttf / NexaBook.otf / rabiohead.ttf / SKYBRUSH.otf / Tahoma Faux Italic.ttf / tahoma.ttf / tahomabd.ttf / times.ttf / timesbd.ttf / timesbi.ttf / Togalite-Bold.otf / trebuc.ttf / trebucbd.ttf / trebucbi.ttf / trebucit.ttf / verdana.ttf / verdanab.ttf / arial.ttf / arialbd.ttf / arialbi.ttf / Brushill.ttf / Brushmark.ttf / BUBBLEGUMSANS-REGULAR.OTF / Chalk Stick.otf / ChalkDust.ttf / comic.ttf / comicbd.ttf / comicz.ttf / CRONOSPRO-BOLD.OTF Video ID : 1 Format : HEVC Format/Info : High Efficiency Video Coding Format profile : Main 10@L6@High HDR format : Dolby Vision, Version 1.0, Profile 8.1, dvhe.08.06, BL+RPU, HDR10 compatible / SMPTE ST 2086, Version HDR10, HDR10 compatible Codec ID : V_MPEGH/ISO/HEVC Duration : 2 h 0 min Bit rate : 12.9 Mb/s Width : 3 840 pixels Height : 2 160 pixels Display aspect ratio : 16:9 Frame rate mode : Constant Frame rate : 23.976 (24000/1001) FPS Color space : YUV Chroma subsampling : 4:2:0 Bit depth : 10 bits Bits/(Pixel*Frame) : 0.065 Stream size : 10.8 GiB (89%) Title : YURASUKA 2160p Dolby Vision HDR10 x265 Writing library : x265 3.5:[Linux][GCC 11.2.0][64 bit] 10bit Encoding settings : cpuid=1176575 / frame-threads=6 / numa-pools=32 / wpp / no-pmode / no-pme / no-psnr / no-ssim / log-level=2 / input-csp=1 / input-res=3840x2160 / interlace=0 / total-frames=0 / level-idc=0 / high-tier=1 / uhd-bd=0 / ref=6 / no-allow-non-conformance / repeat-headers / annexb / no-aud / no-hrd / info / hash=0 / no-temporal-layers / open-gop / min-keyint=1 / keyint=360 / gop-lookahead=0 / bframes=16 / b-adapt=2 / b-pyramid / bframe-bias=0 / rc-lookahead=72 / lookahead-slices=4 / scenecut=40 / hist-scenecut=0 / radl=0 / no-splice / no-intra-refresh / ctu=64 / min-cu-size=8 / rect / amp / max-tu-size=32 / tu-inter-depth=3 / tu-intra-depth=3 / limit-tu=4 / rdoq-level=2 / dynamic-rd=0.00 / no-ssim-rd / signhide / tskip / nr-intra=0 / nr-inter=0 / no-constrained-intra / strong-intra-smoothing / max-merge=5 / limit-refs=3 / limit-modes / me=3 / subme=7 / merange=57 / temporal-mvp / no-frame-dup / no-hme / weightp / weightb / analyze-src-pics / deblock=0:0 / no-sao / no-sao-non-deblock / rd=6 / selective-sao=0 / no-early-skip / rskip / no-fast-intra / no-tskip-fast / no-cu-lossless / b-intra / no-splitrd-skip / rdpenalty=0 / psy-rd=2.00 / psy-rdoq=2.00 / no-rd-refine / no-lossless / cbqpoffs=-2 / crqpoffs=-2 / rc=crf / crf=16.0 / qcomp=0.72 / qpstep=4 / stats-write=0 / stats-read=0 / vbv-maxrate=160000 / vbv-bufsize=160000 / vbv-init=0.9 / min-vbv-fullness=50.0 / max-vbv-fullness=80.0 / crf-max=0.0 / crf-min=0.0 / ipratio=1.40 / pbratio=1.30 / aq-mode=3 / aq-strength=0.85 / cutree / zone-count=0 / no-strict-cbr / qg-size=32 / no-rc-grain / qpmax=69 / qpmin=0 / no-const-vbv / sar=1 / overscan=0 / videoformat=5 / range=0 / colorprim=9 / transfer=16 / colormatrix=9 / chromaloc=0 / display-window=0 / master-display=G(8500,39850)B(6550,2300)R(35400,14600)WP(15635,16450)L(10000000,1) / cll=477,139 / min-luma=0 / max-luma=1023 / log2-max-poc-lsb=8 / vui-timing-info / vui-hrd-info / slices=1 / no-opt-qp-pps / no-opt-ref-list-length-pps / no-multi-pass-opt-rps / scenecut-bias=0.05 / hist-threshold=0.03 / no-opt-cu-delta-qp / no-aq-motion / hdr10 / no-hdr10-opt / no-dhdr10-opt / no-idr-recovery-sei / analysis-reuse-level=0 / analysis-save-reuse-level=0 / analysis-load-reuse-level=0 / scale-factor=0 / refine-intra=0 / refine-inter=0 / refine-mv=1 / refine-ctu-distortion=0 / no-limit-sao / ctu-info=0 / no-lowpass-dct / refine-analysis-type=0 / copy-pic=1 / max-ausize-factor=1.0 / no-dynamic-refine / no-single-sei / no-hevc-aq / no-svt / no-field / qp-adaptation-range=1.00 / scenecut-aware-qp=0conformance-window-offsets / right=0 / bottom=0 / decoder-max-rate=0 / no-vbv-live-multi-pass Language : Japanese Default : Yes Forced : No Color range : Limited Color primaries : BT.2020 Transfer characteristics : PQ Matrix coefficients : BT.2020 non-constant Mastering display color primaries : BT.2020 Mastering display luminance : min: 0.0001 cd/m2, max: 1000 cd/m2 Maximum Content Light Level : 477 cd/m2 Maximum Frame-Average Light Level : 139 cd/m2 Audio ID : 2 Format : FLAC Format/Info : Free Lossless Audio Codec Codec ID : A_FLAC Duration : 2 h 0 min Bit rate mode : Variable Bit rate : 1 516 kb/s Channel(s) : 8 channels Channel layout : L R C LFE Lb Rb Ls Rs Sampling rate : 48.0 kHz Frame rate : 10.417 FPS (4608 SPF) Bit depth : 16 bits Compression mode : Lossless Stream size : 1.27 GiB (10%) Title : Japanese FLAC 7.1 Writing library : Lavf60.16.100 Language : Japanese Default : Yes Forced : No MD5 of the unencoded content : 478187F8E80C2BE7C51ECC8186D738D4 Text #1 Format : ASS Title : Full Subtitles [neoDESU] (Modified) Language : English Default : Yes Forced : No Text #2 Format : ASS Title : Full Subtitles (Crunchyroll) Language : English (US) Default : No Forced : No Menu 00:00:00.000 : en:(01)00:00:00:000 00:04:29.269 : en:(02)00:04:29:269 00:06:04.364 : en:(03)00:06:04:364 00:17:20.789 : en:(04)00:17:20:789 00:31:37.645 : en:(05)00:31:37:645 00:37:13.731 : en:(06)00:37:13:731 00:46:41.423 : en:(07)00:46:41:423 00:53:18.195 : en:(08)00:53:18:195 00:58:36.262 : en:(09)00:58:36:262 01:09:44.680 : en:(10)01:09:44:680 01:24:16.426 : en:(11)01:24:16:426 01:34:28.788 : en:(12)01:34:28:788 01:47:44.207 : en:(13)01:47:44:207 01:54:16.724 : en:(14)01:54:16:724 01:56:10.964 : en:(15)01:56:10:964 ``` Dead end for a sucker that’s a sucker like me. 私のようなカモの行き止まりです。

File list

What the fuck do you mean by "bloat"?
If you didn't modify the subtitles in any way (which I assume you didn't) the typesetting will be badly off as they weren't modified for HDR.
i guess the hypocrite calls it bloat because he can't afford a proper surround audio setup so he downgrades it for plebs that can only "afford" oled and mini led screens that support dolby vision but not be bothered to spend the same amount of money on the audio side of things.
Yeah, like buying a $6000 tv and then using a shitty soundbar.