Rascal.Does.Not.Dream.of.a.Sister.Venturing.Out.2023.1080p.BluRay.10-Bit.FLAC5.1.x265-YURASUKA (Seishun Buta Yarou wa Odekake Sister no Yume wo Minai)

Category:
Date:
2024-03-16 02:56 UTC
Submitter:
Seeders:
22
Information:
Leechers:
0
File size:
1.7 GiB
Completed:
1013
Info hash:
72e37b564d62401ccda463807a8f39f19d5cc79f
Rascal Does Not Dream of a Sister Venturing Out / Seishun Buta Yarou wa Odekake Sister no Yume wo Minai (2023) A/V Source: kin@U2 (JPBD) Subtitles Source: [SubsPlus@Nyaa](https://nyaa.si/view/1761765#com-31) [Aurora/Asakura/SubsPlus] [Encode Comparison](https://slow.pics/c/7Ktf34dM) ``` Complete name : Rascal.Does.Not.Dream.of.a.Sister.Venturing.Out.2023.1080p.BluRay.10-Bit.FLAC5.1.x265-YURASUKA.mkv Format : Matroska Format version : Version 4 File size : 1.69 GiB Duration : 1 h 13 min Overall bit rate mode : Variable Overall bit rate : 3 281 kb/s Frame rate : 23.976 FPS Movie name : Rascal Does Not Dream of a Sister Venturing Out (2023) - YURASUKA Encoded date : 2024-03-15 18:08:59 UTC Writing application : mkvmerge v82.0 ('I'm The President') 64-bit Writing library : libebml v1.4.5 + libmatroska v1.7.1 Attachments : 417537_century-gothic-bold-59749b5ecd13e.ttf / 670358_NotoSans-SemiBold.ttf / 834087_ANNIEUSEYOURTELESCOPE.TTF / 945267_Acme-Regular.ttf / 1469986_Chilanka-Regular.ttf / arial.ttf / candara.ttf / IwaKaiPro-Db-AW.ttf / NirmalaB.ttf / verdana.ttf / verdanab.ttf / 39729_Vesta_Bold.ttf / 47191_expressway rg_0.ttf / 71696_OTTAWAB.TTF / 186444_RuzickaTypeK_0.ttf Video ID : 1 Format : HEVC Format/Info : High Efficiency Video Coding Format profile : Main 10@L5@High Codec ID : V_MPEGH/ISO/HEVC Duration : 1 h 13 min Bit rate : 2 214 kb/s Width : 1 920 pixels Height : 1 080 pixels Display aspect ratio : 16:9 Frame rate mode : Constant Frame rate : 23.976 (24000/1001) FPS Color space : YUV Chroma subsampling : 4:2:0 Bit depth : 10 bits Bits/(Pixel*Frame) : 0.045 Stream size : 1.14 GiB (67%) Title : YURASUKA 1080p x265 Writing library : x265 3.5:[Linux][GCC 11.2.0][64 bit] 10bit Encoding settings : cpuid=1176575 / frame-threads=5 / numa-pools=32 / wpp / no-pmode / no-pme / no-psnr / no-ssim / log-level=2 / input-csp=1 / input-res=1920x1080 / interlace=0 / total-frames=0 / level-idc=0 / high-tier=1 / uhd-bd=0 / ref=6 / no-allow-non-conformance / no-repeat-headers / annexb / no-aud / no-hrd / info / hash=0 / no-temporal-layers / open-gop / min-keyint=1 / keyint=360 / gop-lookahead=0 / bframes=16 / b-adapt=2 / b-pyramid / bframe-bias=0 / rc-lookahead=72 / lookahead-slices=4 / scenecut=40 / hist-scenecut=0 / radl=0 / no-splice / no-intra-refresh / ctu=32 / min-cu-size=8 / rect / amp / max-tu-size=32 / tu-inter-depth=3 / tu-intra-depth=3 / limit-tu=4 / rdoq-level=2 / dynamic-rd=0.00 / no-ssim-rd / signhide / tskip / nr-intra=0 / nr-inter=0 / no-constrained-intra / strong-intra-smoothing / max-merge=5 / limit-refs=3 / limit-modes / me=3 / subme=7 / merange=57 / temporal-mvp / no-frame-dup / no-hme / weightp / weightb / analyze-src-pics / deblock=0:0 / no-sao / no-sao-non-deblock / rd=6 / selective-sao=0 / no-early-skip / rskip / no-fast-intra / no-tskip-fast / no-cu-lossless / b-intra / no-splitrd-skip / rdpenalty=0 / psy-rd=2.00 / psy-rdoq=2.00 / no-rd-refine / no-lossless / cbqpoffs=-2 / crqpoffs=-2 / rc=crf / crf=16.0 / qcomp=0.72 / qpstep=4 / stats-write=0 / stats-read=0 / vbv-maxrate=40000 / vbv-bufsize=80000 / vbv-init=0.9 / min-vbv-fullness=50.0 / max-vbv-fullness=80.0 / crf-max=0.0 / crf-min=0.0 / ipratio=1.40 / pbratio=1.30 / aq-mode=3 / aq-strength=0.95 / cutree / zone-count=0 / no-strict-cbr / qg-size=32 / no-rc-grain / qpmax=69 / qpmin=0 / no-const-vbv / sar=1 / overscan=0 / videoformat=5 / range=0 / colorprim=1 / transfer=1 / colormatrix=1 / chromaloc=0 / display-window=0 / cll=0,0 / min-luma=0 / max-luma=1023 / log2-max-poc-lsb=8 / vui-timing-info / vui-hrd-info / slices=1 / no-opt-qp-pps / no-opt-ref-list-length-pps / no-multi-pass-opt-rps / scenecut-bias=0.05 / hist-threshold=0.03 / no-opt-cu-delta-qp / no-aq-motion / no-hdr10 / no-hdr10-opt / no-dhdr10-opt / no-idr-recovery-sei / analysis-reuse-level=0 / analysis-save-reuse-level=0 / analysis-load-reuse-level=0 / scale-factor=0 / refine-intra=0 / refine-inter=0 / refine-mv=1 / refine-ctu-distortion=0 / no-limit-sao / ctu-info=0 / no-lowpass-dct / refine-analysis-type=0 / copy-pic=1 / max-ausize-factor=1.0 / no-dynamic-refine / no-single-sei / no-hevc-aq / no-svt / no-field / qp-adaptation-range=1.00 / scenecut-aware-qp=0conformance-window-offsets / right=0 / bottom=0 / decoder-max-rate=0 / no-vbv-live-multi-pass Language : Japanese Default : Yes Forced : No Color range : Limited Color primaries : BT.709 Transfer characteristics : BT.709 Matrix coefficients : BT.709 Audio ID : 2 Format : FLAC Format/Info : Free Lossless Audio Codec Codec ID : A_FLAC Duration : 1 h 13 min Bit rate mode : Variable Bit rate : 857 kb/s Channel(s) : 6 channels Channel layout : L R C LFE Ls Rs Sampling rate : 48.0 kHz Frame rate : 10.417 FPS (4608 SPF) Bit depth : 16 bits Compression mode : Lossless Stream size : 453 MiB (26%) Title : Japanese FLAC 5.1 Writing library : Lavf60.16.100 Language : Japanese Default : Yes Forced : No MD5 of the unencoded content : 17E92C5595D5E2DACFC3762CDCD081E3 Text #1 ID : 3 Format : ASS Codec ID : S_TEXT/ASS Codec ID/Info : Advanced Sub Station Alpha Duration : 1 h 12 min Bit rate : 47.2 kb/s Frame rate : 22.210 FPS Count of elements : 96787 Compression mode : Lossless Stream size : 24.5 MiB (1%) Title : English Subtitles [Aurora/Asakura/SubsPlus] Language : English Default : Yes Forced : No Text #2 ID : 4 Format : PGS Muxing mode : zlib Codec ID : S_HDMV/PGS Codec ID/Info : Picture based subtitle format used on BDs/HD-DVDs Duration : 1 h 12 min Bit rate : 356 kb/s Frame rate : 1.750 FPS Count of elements : 7655 Stream size : 186 MiB (11%) Title : Japanese Subtitles (JPBD) Language : Japanese Default : No Forced : No Menu 00:00:00.000 : en:Chapter 1 00:16:05.965 : en:Chapter 2 00:29:14.252 : en:Chapter 3 00:48:19.521 : en:Chapter 4 01:08:47.623 : en:Ending 01:12:45.361 : en:Epilogue ``` Dead end for a sucker that’s a sucker like me. 私のようなカモの行き止まりです。

File list