Im.the.Villainess.So.Im.Taming.the.Final.Boss.S01.1080p.BluRay.10-Bit.Dual-Audio.FLAC5.1.x265-YURASUKA (Akuyaku Reijou nanode Last Boss wo Kattemimashita)

Category:
Date:
2024-03-09 07:52 UTC
Submitter:
Seeders:
11
Information:
Leechers:
0
File size:
11.7 GiB
Completed:
553
Info hash:
f251cb78d81a0eb2a84f9b6bcbdf3bd0ae6ec68a
I'm the Villainess, So I'm Taming the Final Boss / Akuyaku Reijou nanode Last Boss wo Kattemimashita Season 1 (2022) Note: There is no JPBD for this one A/V Source: Anon@U2 (USBD) Subtitles Source: [neoDESU@Nyaa](https://nyaa.si/view/1766255) [Encode Comparison](https://slow.pics/c/dTtkJHvd) ``` Complete name : Im.the.Villainess.So.Im.Taming.the.Final.Boss.S01E02.1080p.BluRay.10-Bit.Dual-Audio.FLAC5.1.x265-YURASUKA.mkv Format : Matroska Format version : Version 4 File size : 1 000 MiB Duration : 23 min 42 s Overall bit rate mode : Variable Overall bit rate : 5 898 kb/s Frame rate : 23.976 FPS Movie name : I'm the Villainess, So I'm Taming the Final Boss - S01E02 - YURASUKA Encoded date : 2024-03-08 12:59:35 UTC Writing application : mkvmerge v82.0 ('I'm The President') 64-bit Writing library : libebml v1.4.5 + libmatroska v1.7.1 Attachments : A-OTF-FutoMinA101Pr5-Bold.otf / A-OTF-FutoMinA101Pro-Bold.otf / A-OTF-KaishoMCBK1Pro-DeBold.otf / A-OTF-MoariaStd-Regular.otf / AbelBecker.ttf / ARIALNB.TTF / ARIALNBI.TTF / ArnoPro-Subhead.otf / FOTPopJoyStdStripped-B.otf / IwaOMinPro-Bd.otf / Letters for Learners.ttf / Pro UB.otf / RachelBrown.ttf / Rosario-Bold.ttf / Rosario-BoldItalic.ttf Video ID : 1 Format : HEVC Format/Info : High Efficiency Video Coding Format profile : Main 10@L5@High Codec ID : V_MPEGH/ISO/HEVC Duration : 23 min 42 s Bit rate : 3 621 kb/s Width : 1 920 pixels Height : 1 080 pixels Display aspect ratio : 16:9 Frame rate mode : Constant Frame rate : 23.976 (24000/1001) FPS Color space : YUV Chroma subsampling : 4:2:0 Bit depth : 10 bits Bits/(Pixel*Frame) : 0.073 Stream size : 614 MiB (61%) Title : YURASUKA 1080p x265 Writing library : x265 3.5:[Linux][GCC 11.2.0][64 bit] 10bit Encoding settings : cpuid=1176575 / frame-threads=5 / numa-pools=32 / wpp / no-pmode / no-pme / no-psnr / no-ssim / log-level=2 / input-csp=1 / input-res=1920x1080 / interlace=0 / total-frames=0 / level-idc=0 / high-tier=1 / uhd-bd=0 / ref=6 / no-allow-non-conformance / no-repeat-headers / annexb / no-aud / no-hrd / info / hash=0 / no-temporal-layers / open-gop / min-keyint=1 / keyint=360 / gop-lookahead=0 / bframes=16 / b-adapt=2 / b-pyramid / bframe-bias=0 / rc-lookahead=72 / lookahead-slices=4 / scenecut=40 / hist-scenecut=0 / radl=0 / no-splice / no-intra-refresh / ctu=32 / min-cu-size=8 / rect / amp / max-tu-size=32 / tu-inter-depth=3 / tu-intra-depth=3 / limit-tu=4 / rdoq-level=2 / dynamic-rd=0.00 / no-ssim-rd / signhide / tskip / nr-intra=0 / nr-inter=0 / no-constrained-intra / strong-intra-smoothing / max-merge=5 / limit-refs=3 / limit-modes / me=3 / subme=7 / merange=57 / temporal-mvp / no-frame-dup / no-hme / weightp / weightb / analyze-src-pics / deblock=0:0 / no-sao / no-sao-non-deblock / rd=6 / selective-sao=0 / no-early-skip / rskip / no-fast-intra / no-tskip-fast / no-cu-lossless / b-intra / no-splitrd-skip / rdpenalty=0 / psy-rd=2.00 / psy-rdoq=2.00 / no-rd-refine / no-lossless / cbqpoffs=-2 / crqpoffs=-2 / rc=crf / crf=16.0 / qcomp=0.72 / qpstep=4 / stats-write=0 / stats-read=0 / vbv-maxrate=20000 / vbv-bufsize=40000 / vbv-init=0.9 / min-vbv-fullness=50.0 / max-vbv-fullness=80.0 / crf-max=0.0 / crf-min=0.0 / ipratio=1.40 / pbratio=1.30 / aq-mode=3 / aq-strength=0.85 / cutree / zone-count=0 / no-strict-cbr / qg-size=32 / no-rc-grain / qpmax=69 / qpmin=0 / no-const-vbv / sar=1 / overscan=0 / videoformat=5 / range=0 / colorprim=1 / transfer=1 / colormatrix=1 / chromaloc=0 / display-window=0 / cll=0,0 / min-luma=0 / max-luma=1023 / log2-max-poc-lsb=8 / vui-timing-info / vui-hrd-info / slices=1 / no-opt-qp-pps / no-opt-ref-list-length-pps / no-multi-pass-opt-rps / scenecut-bias=0.05 / hist-threshold=0.03 / no-opt-cu-delta-qp / no-aq-motion / no-hdr10 / no-hdr10-opt / no-dhdr10-opt / no-idr-recovery-sei / analysis-reuse-level=0 / analysis-save-reuse-level=0 / analysis-load-reuse-level=0 / scale-factor=0 / refine-intra=0 / refine-inter=0 / refine-mv=1 / refine-ctu-distortion=0 / no-limit-sao / ctu-info=0 / no-lowpass-dct / refine-analysis-type=0 / copy-pic=1 / max-ausize-factor=1.0 / no-dynamic-refine / no-single-sei / no-hevc-aq / no-svt / no-field / qp-adaptation-range=1.00 / scenecut-aware-qp=0conformance-window-offsets / right=0 / bottom=0 / decoder-max-rate=0 / no-vbv-live-multi-pass Language : Japanese Default : Yes Forced : No Color range : Limited Color primaries : BT.709 Transfer characteristics : BT.709 Matrix coefficients : BT.709 Audio #1 ID : 2 Format : FLAC Format/Info : Free Lossless Audio Codec Codec ID : A_FLAC Duration : 23 min 42 s Bit rate mode : Variable Bit rate : 1 347 kb/s Channel(s) : 6 channels Channel layout : L R C LFE Ls Rs Sampling rate : 48.0 kHz Frame rate : 10.417 FPS (4608 SPF) Bit depth : 16 bits Compression mode : Lossless Stream size : 228 MiB (23%) Title : English FLAC 5.1 Writing library : Lavf60.16.100 Language : English Default : Yes Forced : No MD5 of the unencoded content : 6DE162B8A28C4ADC91C95CF60EA432B1 Audio #2 ID : 3 Format : FLAC Format/Info : Free Lossless Audio Codec Codec ID : A_FLAC Duration : 23 min 42 s Bit rate mode : Variable Bit rate : 670 kb/s Channel(s) : 2 channels Channel layout : L R Sampling rate : 48.0 kHz Frame rate : 10.417 FPS (4608 SPF) Bit depth : 16 bits Compression mode : Lossless Stream size : 114 MiB (11%) Title : Japanese FLAC 2.0 Writing library : Lavf60.16.100 Language : Japanese Default : Yes Forced : No MD5 of the unencoded content : F4D8DEEC517F35F6784F8FB051AE080C Text #1 ID : 4 Format : ASS Codec ID : S_TEXT/ASS Codec ID/Info : Advanced Sub Station Alpha Duration : 22 min 49 s Bit rate : 2 314 b/s Frame rate : 1.742 FPS Count of elements : 2386 Compression mode : Lossless Stream size : 387 KiB (0%) Title : Signs & Songs [neoDESU] Language : English Default : Yes Forced : Yes Text #2 ID : 5 Format : ASS Codec ID : S_TEXT/ASS Codec ID/Info : Advanced Sub Station Alpha Duration : 23 min 34 s Bit rate : 2 386 b/s Frame rate : 1.951 FPS Count of elements : 2759 Compression mode : Lossless Stream size : 412 KiB (0%) Title : Full Subtitles [neoDESU] Language : English Default : No Forced : No Menu 00:00:01.001 : Intro 00:00:48.031 : OP 00:02:17.991 : Episode 00:22:10.981 : ED ``` Dead end for a sucker that’s a sucker like me. 私のようなカモの行き止まりです。

File list

  • Im.the.Villainess.So.Im.Taming.the.Final.Boss.S01.1080p.BluRay.10-Bit.Dual-Audio.FLAC5.1.x265-YURASUKA
    • Im.the.Villainess.So.Im.Taming.the.Final.Boss.S01E01.1080p.BluRay.10-Bit.Dual-Audio.FLAC5.1.x265-YURASUKA.mkv (1.1 GiB)
    • Im.the.Villainess.So.Im.Taming.the.Final.Boss.S01E02.1080p.BluRay.10-Bit.Dual-Audio.FLAC5.1.x265-YURASUKA.mkv (999.8 MiB)
    • Im.the.Villainess.So.Im.Taming.the.Final.Boss.S01E03.1080p.BluRay.10-Bit.Dual-Audio.FLAC5.1.x265-YURASUKA.mkv (1.0 GiB)
    • Im.the.Villainess.So.Im.Taming.the.Final.Boss.S01E04.1080p.BluRay.10-Bit.Dual-Audio.FLAC5.1.x265-YURASUKA.mkv (778.2 MiB)
    • Im.the.Villainess.So.Im.Taming.the.Final.Boss.S01E05.1080p.BluRay.10-Bit.Dual-Audio.FLAC5.1.x265-YURASUKA.mkv (955.7 MiB)
    • Im.the.Villainess.So.Im.Taming.the.Final.Boss.S01E06.1080p.BluRay.10-Bit.Dual-Audio.FLAC5.1.x265-YURASUKA.mkv (958.9 MiB)
    • Im.the.Villainess.So.Im.Taming.the.Final.Boss.S01E07.1080p.BluRay.10-Bit.Dual-Audio.FLAC5.1.x265-YURASUKA.mkv (1012.6 MiB)
    • Im.the.Villainess.So.Im.Taming.the.Final.Boss.S01E08.1080p.BluRay.10-Bit.Dual-Audio.FLAC5.1.x265-YURASUKA.mkv (1.1 GiB)
    • Im.the.Villainess.So.Im.Taming.the.Final.Boss.S01E09.1080p.BluRay.10-Bit.Dual-Audio.FLAC5.1.x265-YURASUKA.mkv (903.7 MiB)
    • Im.the.Villainess.So.Im.Taming.the.Final.Boss.S01E10.1080p.BluRay.10-Bit.Dual-Audio.FLAC5.1.x265-YURASUKA.mkv (983.7 MiB)
    • Im.the.Villainess.So.Im.Taming.the.Final.Boss.S01E11.1080p.BluRay.10-Bit.Dual-Audio.FLAC5.1.x265-YURASUKA.mkv (1023.4 MiB)
    • Im.the.Villainess.So.Im.Taming.the.Final.Boss.S01E12.1080p.BluRay.10-Bit.Dual-Audio.FLAC5.1.x265-YURASUKA.mkv (1.1 GiB)
e04 - 13:23 corrupted encode?